<?xml version="1.0" standalone="no"?>
<!DOCTYPE svg PUBLIC "-//W3C//DTD SVG 1.1//EN" "http://www.w3.org/Graphics/SVG/1.1/DTD/svg11.dtd" >
<svg xmlns="http://www.w3.org/2000/svg">
<metadata></metadata>
<defs>
<font id="didot_lt_stdregular" horiz-adv-x="569" >
<font-face units-per-em="2048" ascent="1477" descent="-571" />
<missing-glyph horiz-adv-x="500" />
<glyph unicode="&#xfb01;" horiz-adv-x="1214" d="M57 0v29h158v821h-158v29h158v108q0 223 98 336q144 172 357 172q49 0 98 -11t99.5 -35t82 -72t31.5 -113q0 -44 -24 -75.5t-76 -31.5q-41 0 -68 18.5t-27 51.5q0 23 14.5 59.5t14.5 85.5q0 48 -40.5 71t-108.5 23q-275 0 -275 -379v-208h621v-850h157v-29h-491v29h158 v821h-445v-821h158v-29h-492z" />
<glyph unicode="&#xfb02;" horiz-adv-x="1214" d="M76 0v29h157v821h-157v29h157v143q0 105 16.5 176t63.5 129q61 77 149.5 122.5t190.5 45.5q45 0 111 -8q55 -10 65 -10h175v-1448h157v-29h-477v29h143v1171q-20 0 -41 6t-40 26t-19 50t20.5 59t20.5 58q0 32 -38.5 49.5t-80.5 17.5q-63 0 -111 -28.5t-75 -77t-40 -104 t-13 -117.5v-260h204v-29h-204v-821h143v-29h-477z" />
<glyph horiz-adv-x="2048" />
<glyph horiz-adv-x="2048" />
<glyph unicode="&#xd;" horiz-adv-x="2048" />
<glyph unicode=" " />
<glyph unicode="!" horiz-adv-x="643" d="M213 86q0 44 32.5 76.5t76.5 32.5t76 -32.5t32 -76.5t-32 -76.5t-76 -32.5t-76.5 32.5t-32.5 76.5zM223 1399q0 42 27.5 69t71.5 27t71 -27t27 -69q0 -17 -14 -189l-64 -845h-41l-63 845q-15 184 -15 189z" />
<glyph unicode="&#x22;" horiz-adv-x="909" d="M274 1417q0 78 52 78q29 0 40 -19.5t11 -58.5q0 -40 -2 -63l-31 -451h-37l-31 451q-2 23 -2 63zM532 1417q0 78 52 78q29 0 40 -19.5t11 -58.5q0 -40 -2 -63l-31 -451h-37l-30 451q-3 35 -3 63z" />
<glyph unicode="#" horiz-adv-x="1138" d="M-8 485l14 37h273l147 406h-272l14 37h272l178 493h44l-179 -493h346l179 493h43l-179 -493h273l-15 -37h-272l-147 -406h272l-14 -37h-273l-176 -485h-43l176 485h-346l-176 -485h-43l176 485h-272zM322 522h346l147 406h-346z" />
<glyph unicode="$" horiz-adv-x="1366" d="M154 0v440h22q18 -86 46 -155t58 -114t70 -78t74 -50t77.5 -27.5t73.5 -12.5t70 -3v666l-119 34q-170 50 -253 137.5t-83 223.5q0 186 126 307t323 121h6v125h29v-125q71 -3 127.5 -23.5t94 -38.5t65.5 -18q26 0 36 7t25 36h29v-369h-25q-12 73 -38.5 136t-68.5 116 t-105 86t-140 39v-579l170 -50q160 -47 243 -125q107 -100 107 -253q0 -95 -36 -181.5t-101 -153t-164.5 -106.5t-218.5 -41v-143h-29v143q-73 2 -120 8t-109 23q-10 3 -52.5 17.5t-69.5 21t-48 6.5q-28 0 -40.5 -11t-21.5 -36h-30zM301 1182q0 -51 17.5 -93t44.5 -70 t68 -51.5t78.5 -37.5t86.5 -27l49 -14v571h-6q-43 0 -86.5 -8t-89.5 -28.5t-81.5 -50.5t-58 -79.5t-22.5 -111.5zM674 0q83 1 148 23t104.5 55.5t65 78.5t35 87.5t9.5 85.5q0 57 -16.5 104t-41 77t-61 54.5t-67.5 37t-70 24.5l-106 30v-657z" />
<glyph unicode="%" horiz-adv-x="1593" d="M104 1153q0 68 33.5 132t84.5 107.5t110.5 70t111.5 26.5q79 0 158 -44.5t132.5 -124.5t53.5 -171q0 -85 -50.5 -164t-128 -125.5t-154.5 -46.5q-93 0 -175 50t-129 128t-47 162zM248 1163q0 -173 47.5 -247t153.5 -74q103 0 149.5 75t46.5 252q0 157 -51.5 224 t-153.5 67q-192 0 -192 -297zM389 -10l778 1499l37 -19l-778 -1499zM805 311q0 68 33.5 132t84.5 107.5t110.5 70t111.5 26.5q79 0 158 -44.5t132.5 -124.5t53.5 -171q0 -85 -51 -164t-128.5 -125.5t-154.5 -46.5q-141 0 -245.5 105.5t-104.5 234.5zM948 322 q0 -173 47.5 -247.5t153.5 -74.5q103 0 150 75.5t47 252.5q0 156 -51.5 223t-153.5 67q-58 0 -98 -27t-59.5 -73t-27.5 -93t-8 -103z" />
<glyph unicode="&#x26;" horiz-adv-x="1593" d="M154 426q0 60 14 114.5t33 95t55.5 82.5t64 68t77 59.5t76 49t77.5 45.5q-20 41 -31.5 68t-24 79.5t-12.5 104.5q0 132 85 214.5t194 82.5q82 0 134 -51.5t52 -151.5q0 -58 -18.5 -106t-51.5 -83t-64 -57.5t-71 -44.5l357 -680q102 170 102 396q0 101 -8.5 158 t-33.5 88.5t-58.5 40t-95.5 8.5v28h389v-28q-102 0 -133 -55.5t-31 -198.5q0 -157 -28 -260t-89 -207q35 -63 51.5 -90t42 -61.5t47.5 -47t48 -12.5q100 0 100 194h29q0 -81 -22 -141.5t-58 -93t-75.5 -47.5t-82.5 -15q-56 0 -94.5 18.5t-62.5 47.5t-60 88 q-64 -61 -158 -107.5t-207 -46.5q-99 0 -180 33t-131 83.5t-84.5 113.5t-48.5 119.5t-14 105.5zM330 598q0 -91 33 -193.5t85 -185.5t120.5 -137.5t133.5 -54.5q125 0 261 125l-400 766q-115 -60 -174 -134t-59 -186zM637 1294q0 -82 96 -274q42 24 70 44t57.5 51.5 t44.5 73.5t15 95q0 76 -36.5 126t-113.5 50q-55 0 -94 -47.5t-39 -118.5z" />
<glyph unicode="'" d="M233 1417q0 78 52 78q29 0 40 -19.5t11 -58.5q0 -40 -2 -63l-31 -451h-37l-30 451q-3 35 -3 63z" />
<glyph unicode="(" d="M162 442q0 167 30.5 330.5t70 274.5t91 212t79 143t48.5 68l33 -20q-311 -456 -311 -1008q0 -551 311 -1007l-33 -21q-21 26 -48.5 68t-79 143t-91 212t-70 274.5t-30.5 330.5z" />
<glyph unicode=")" d="M55 -565q312 458 312 1007q0 550 -312 1008l33 20q21 -26 48.5 -68t79 -143t91.5 -212t70.5 -274.5t30.5 -330.5t-30.5 -330.5t-70.5 -274.5t-91.5 -212t-79 -143t-48.5 -68z" />
<glyph unicode="*" horiz-adv-x="909" d="M88 1247q0 34 23 60t63 26q29 0 54 -21t45 -51.5t66.5 -77t106.5 -85.5q-3 68 -16 125t-26.5 85.5t-25 55.5t-11.5 43q0 34 22.5 61t65.5 27t65.5 -27t22.5 -61q0 -16 -11 -43t-25 -55.5t-27.5 -85.5t-16.5 -125q60 39 106.5 85.5t66.5 77t45 51.5t54 21q40 0 63 -26 t23 -60q0 -49 -43 -73q-11 -6 -37.5 -9.5t-58.5 -7.5t-90.5 -22.5t-124.5 -49.5q84 -40 153.5 -57.5t107.5 -21t50 -9.5q43 -24 43 -73q0 -34 -23 -60t-63 -26q-29 0 -54 21t-45 51.5t-66.5 77t-106.5 85.5q3 -68 17 -125t28 -85.5t25.5 -55.5t11.5 -43q0 -34 -22.5 -61 t-65.5 -27t-65.5 27t-22.5 61q0 16 11 43t25 55.5t27.5 85.5t16.5 125q-60 -39 -106.5 -85.5t-67 -77t-45.5 -51.5t-54 -21q-40 0 -63 26t-23 60q0 49 43 73q12 6 50 9.5t107.5 21t153.5 57.5q-66 31 -125 49.5t-91.5 22.5t-59 7.5t-37.5 9.5q-43 24 -43 73z" />
<glyph unicode="+" horiz-adv-x="1214" d="M115 473v37h471v473h41v-473h471v-37h-471v-473h-41v473h-471z" />
<glyph unicode="," d="M137 88q0 48 36.5 82.5t88.5 34.5q76 0 123 -63.5t47 -147.5q0 -108 -76 -213.5t-155 -155.5l-19 25q107 77 150 148.5t43 123.5q0 67 -37 107q-36 -52 -88 -52q-42 0 -77.5 31t-35.5 80z" />
<glyph unicode="-" horiz-adv-x="757" d="M188 379v135h381v-135h-381z" />
<glyph unicode="." d="M176 86q0 44 32.5 76.5t76.5 32.5t76 -32.5t32 -76.5t-32 -76.5t-76 -32.5t-76.5 32.5t-32.5 76.5z" />
<glyph unicode="/" horiz-adv-x="606" d="M6 0l553 1470l41 -12l-553 -1470z" />
<glyph unicode="0" horiz-adv-x="1064" d="M53 731q0 75 6 146t21 148t38.5 143t61 126t86 102.5t117 67.5t149.5 25t149.5 -25t117 -67.5t86.5 -102.5t61.5 -126t38.5 -143t21 -148t6 -146q0 -76 -6 -147t-21 -148.5t-38.5 -143.5t-61.5 -126t-86.5 -102.5t-117 -67.5t-149.5 -25q-94 0 -170.5 32.5t-127.5 91 t-87.5 131t-56.5 161.5t-28.5 172t-8.5 172zM258 731q0 -133 4.5 -231t16 -183.5t31.5 -142t50.5 -97.5t72.5 -59t99 -18t99.5 18t73 59t50.5 97.5t31.5 142t16 183.5t4.5 231t-4.5 230.5t-16 183t-31.5 141.5t-50.5 97t-73 59t-99.5 18t-99 -18t-72.5 -59t-50.5 -97 t-31.5 -141.5t-16 -183t-4.5 -230.5z" />
<glyph unicode="1" horiz-adv-x="1064" d="M162 1176q117 66 174.5 100t138 92.5t141.5 120.5h41v-1460h228v-29h-631v29h227v1298q-47 -33 -69 -45l-234 -133z" />
<glyph unicode="2" horiz-adv-x="1064" d="M25 0v29q178 149 283.5 249t207.5 224q227 275 227 585q0 186 -63.5 279.5t-196.5 93.5q-105 0 -172 -47t-67 -127q0 -19 13 -58.5t13 -60.5q0 -32 -24 -50.5t-58 -18.5q-104 0 -104 104q0 111 117.5 199t281.5 88q114 0 203 -34t142.5 -92t80.5 -128t27 -148 q0 -72 -19 -140.5t-45.5 -120.5t-75.5 -113.5t-87 -101.5t-103 -103q-198 -195 -377 -356h469q116 0 171.5 56t68.5 163h23v-371h-936z" />
<glyph unicode="3" horiz-adv-x="1064" d="M57 291l29 6q5 -30 14 -60t35.5 -75.5t64 -79t105 -58t152.5 -24.5q55 0 97.5 11.5t81.5 41.5t64.5 78.5t40.5 126t15 180.5q0 371 -275 371q-130 0 -241 -80l-19 33q74 38 193 69q71 19 124 47t87 62.5t55 79.5t29 92t8 105q0 243 -211 243q-64 0 -110 -16.5 t-67.5 -41.5t-30.5 -46.5t-9 -38.5q0 -42 17.5 -83.5t17.5 -51.5q0 -66 -86 -66q-91 0 -91 88q0 25 10.5 58t38 74t68 74.5t108 56t150.5 22.5q94 0 170.5 -30t121 -77t68 -100t23.5 -104q0 -55 -23 -103.5t-61.5 -83.5t-82 -63t-91.5 -46.5t-82.5 -29.5t-62.5 -16v-5 q121 -6 222.5 -57t165.5 -144.5t64 -211.5q0 -82 -36 -162t-98.5 -143.5t-156.5 -102.5t-202 -39q-97 0 -172.5 27.5t-121.5 75t-72.5 101t-37.5 116.5z" />
<glyph unicode="4" horiz-adv-x="1064" d="M63 358q91 198 189 387t149 277.5t84 140.5q99 155 152.5 223.5t83 85.5t74.5 17q84 0 84 -49q0 -11 -12 -25t-56 -57q-26 -25 -50 -49t-49.5 -51t-41 -43.5t-42.5 -48t-36.5 -42.5t-41 -48.5t-38.5 -45.5q-47 -55 -91 -116t-91.5 -138.5t-73.5 -121t-80 -140.5t-67 -121 h538v547h176v-547h183v-35h-183v-329h183v-29h-541v29h182v329h-584z" />
<glyph unicode="5" horiz-adv-x="1064" d="M88 209q0 44 30.5 65t74.5 21t69 -21t25 -61q0 -9 -1 -32t-1 -31q0 -87 46.5 -118.5t141.5 -31.5q94 0 151 42t89 154.5t32 307.5q0 186 -58.5 281.5t-207.5 95.5q-266 0 -340 -250l-22 6l129 852h67q39 -41 64 -63.5t66.5 -51.5t89.5 -42t106 -13q85 0 145 34.5 t140 135.5l22 -14q-50 -71 -81.5 -111t-71 -82.5t-73.5 -63t-76.5 -34t-92.5 -13.5q-67 0 -127 20t-180 75l-78 -498l4 -4q46 68 129.5 106.5t192.5 38.5q107 0 195 -37.5t143 -100t84.5 -140t29.5 -160.5q0 -54 -14 -115t-50 -131t-90 -125t-143.5 -92t-200.5 -37 q-82 0 -147 18t-103.5 45t-64 61t-34.5 62t-9 52z" />
<glyph unicode="6" horiz-adv-x="1064" d="M66 616q0 239 79 439.5t218 317t307 116.5q59 0 107 -15.5t78 -40.5t50.5 -57.5t28.5 -64t8 -62.5q0 -45 -30.5 -75.5t-80.5 -30.5q-45 0 -69.5 18t-24.5 51q0 19 24.5 63.5t24.5 88.5q0 96 -129 96q-63 0 -117 -27t-92 -69.5t-69.5 -105t-50.5 -122.5t-35 -132.5 t-24.5 -125t-16.5 -110.5q0 -5 -1 -8.5t-1 -7.5l4 -4q41 74 120.5 117.5t174.5 43.5q105 0 193 -42t142.5 -109.5t84.5 -147.5t30 -161q0 -122 -61.5 -232t-168.5 -178t-230 -68q-76 0 -143.5 21.5t-128.5 70.5t-105 122t-70 183.5t-26 247.5zM258 573q0 -168 13 -270.5 t51 -185.5q53 -117 217 -117q148 0 204 119q52 110 52 336q0 229 -66 333q-59 93 -184 93q-93 0 -158.5 -41t-97.5 -99q-31 -56 -31 -168z" />
<glyph unicode="7" horiz-adv-x="1064" d="M139 1079v379h797q-7 -133 -38.5 -288.5t-67.5 -274.5t-84 -247t-71.5 -183t-47.5 -107q-50 -111 -91 -185.5t-68.5 -114.5t-56.5 -60t-46 -23.5t-46 -3.5q-34 0 -64 18.5t-30 49.5q0 18 8.5 35t15.5 25.5t31 31t33 31.5q161 157 239 269t155 274q50 103 87.5 208 t55.5 185t26.5 124.5t10.5 71.5h-506q-192 0 -219 -215h-23z" />
<glyph unicode="8" horiz-adv-x="1064" d="M78 356q0 67 26 127t61.5 99.5t88.5 76t89.5 54.5t82.5 37q-55 25 -92 46t-76 53.5t-62 68t-38 87.5t-15 115q0 104 60.5 190t153.5 132.5t194 46.5q94 0 178.5 -36.5t139.5 -108t55 -160.5q0 -62 -21.5 -114.5t-65 -96t-84.5 -73.5t-104 -69q68 -32 121.5 -65.5 t106 -82.5t81.5 -114.5t29 -142.5q0 -90 -33.5 -172t-94 -145t-152.5 -100.5t-201 -37.5q-183 0 -305.5 109t-122.5 276zM246 342q0 -70 15.5 -129.5t47.5 -108.5t88.5 -76.5t132.5 -27.5q84 0 153.5 56.5t104.5 135t35 154.5q0 43 -9 81t-22 66t-38.5 55.5t-45.5 45 t-57.5 40t-60.5 34l-68 34l-67 33.5q-66 -32 -108.5 -73t-64 -93t-29 -104t-7.5 -123zM285 1188q0 -123 75 -195q50 -48 261 -147q60 35 104.5 108t44.5 187q0 54 -4.5 96.5t-18.5 86t-37.5 72t-63.5 46.5t-95 18q-122 0 -194 -75.5t-72 -196.5z" />
<glyph unicode="9" horiz-adv-x="1064" d="M49 1012q0 127 70.5 239t178 175t218.5 63q71 0 134.5 -18.5t125.5 -66.5t106 -122t71.5 -194t27.5 -273q0 -156 -22 -284.5t-56.5 -214t-83 -150.5t-96 -101t-102 -58.5t-94 -29t-78.5 -6.5q-132 0 -237.5 68.5t-105.5 173.5q0 64 32.5 92.5t82.5 28.5q45 0 67.5 -21.5 t22.5 -50.5q0 -17 -24.5 -61t-24.5 -90q0 -49 45.5 -80t130.5 -31q68 0 120 21t96 71t72.5 131t44 203.5t15.5 286.5h-4q-14 -25 -34 -49t-53.5 -52t-85.5 -45.5t-113 -17.5q-101 0 -187 42t-141.5 109t-87 148.5t-31.5 163.5zM254 1014q0 -53 1.5 -93t8 -88t17 -82.5 t29.5 -69t45.5 -55.5t66 -34.5t88.5 -13.5q24 0 52 4.5t70.5 23.5t75 49.5t56.5 89.5t24 136q0 142 -17.5 280.5t-53.5 198.5q-58 100 -199 100q-78 0 -130.5 -29.5t-81.5 -90t-40.5 -138t-11.5 -188.5z" />
<glyph unicode=":" d="M176 86q0 44 32.5 76.5t76.5 32.5t76 -32.5t32 -76.5t-32 -76.5t-76 -32.5t-76.5 32.5t-32.5 76.5zM176 793q0 44 32.5 76t76.5 32t76 -32t32 -76t-32 -76.5t-76 -32.5t-76.5 32.5t-32.5 76.5z" />
<glyph unicode=";" d="M137 88q0 48 36.5 82.5t88.5 34.5q76 0 123 -63.5t47 -147.5q0 -108 -76 -213.5t-155 -155.5l-19 25q107 77 150 148.5t43 123.5q0 67 -37 107q-36 -52 -88 -52q-42 0 -77.5 31t-35.5 80zM176 793q0 44 32.5 76t76.5 32t76 -32t32 -76t-32 -76.5t-76 -32.5t-76.5 32.5 t-32.5 76.5z" />
<glyph unicode="&#x3c;" horiz-adv-x="1214" d="M25 483v17l1163 483v-41l-1096 -450l1096 -451v-41z" />
<glyph unicode="=" horiz-adv-x="1214" d="M115 297v37h983v-37h-983zM115 649v37h983v-37h-983z" />
<glyph unicode="&#x3e;" horiz-adv-x="1214" d="M25 0v41l1097 451l-1097 450v41l1163 -483v-17z" />
<glyph unicode="?" horiz-adv-x="833" d="M172 86q0 44 32.5 76.5t76.5 32.5t76 -32.5t32 -76.5t-32 -76.5t-76 -32.5t-76.5 32.5t-32.5 76.5zM197 1264q0 33 16 71.5t46.5 75t83 60.5t116.5 24q120 0 190 -93.5t70 -268.5q0 -78 -15.5 -145t-47.5 -121.5t-86.5 -85.5t-125.5 -31q-81 0 -145 69v-454h-33v514h33 q24 -50 55.5 -75.5t81.5 -25.5q51 0 81 30t45.5 108t15.5 217q0 98 -9.5 165t-28 103t-41 50.5t-53.5 14.5q-43 0 -82.5 -20.5t-39.5 -61.5q0 -25 24.5 -64.5t24.5 -68.5q0 -30 -24 -50.5t-58 -20.5q-40 0 -67 21t-27 63z" />
<glyph unicode="@" horiz-adv-x="1705" d="M84 696q0 161 68 309t183 255.5t273.5 171t331.5 63.5q151 0 279.5 -47t216.5 -128.5t137 -192.5t49 -238q0 -138 -60 -270t-156.5 -213.5t-197.5 -81.5q-167 0 -182 182q-40 -90 -105.5 -136t-146.5 -46q-121 0 -199.5 85t-78.5 207q0 94 40.5 185.5t103.5 157.5 t141 106.5t151 40.5q12 0 22 -1t33 -4.5t42.5 -13.5t40.5 -25.5t37 -43.5t23 -64l39 129h119l-139 -475q-21 -77 -21 -119q0 -65 35.5 -89.5t79.5 -24.5q54 0 114 44t109.5 114t82 165t32.5 189q0 112 -43 213.5t-121.5 179.5t-200.5 124t-270 46q-135 0 -258.5 -42 t-217.5 -115.5t-163.5 -169.5t-106 -207t-36.5 -224q0 -141 54 -266t148.5 -215t230.5 -142.5t294 -52.5q139 0 283 46.5t270 146.5l26 -37q-49 -36 -91 -61.5t-119.5 -62t-177 -57t-210.5 -20.5q-156 1 -298 52t-251 142t-174 229t-65 302zM645 578q0 -34 7 -67t23 -65.5 t47.5 -52.5t74.5 -20q117 0 186 151q29 63 70 189t41 207q0 48 -37.5 92.5t-102.5 44.5q-77 0 -150.5 -78t-116 -189t-42.5 -212z" />
<glyph unicode="A" horiz-adv-x="1517" d="M-2 0v29h180l553 1466h49l557 -1466h183v-29h-631v29h227l-215 569h-475l-215 -569h227v-29h-440zM438 627h451l-225 596z" />
<glyph unicode="B" horiz-adv-x="1366" d="M61 0v29h228v1401h-228v28h359q41 0 127 4q22 0 63.5 1t59.5 1q114 0 204 -23.5t142.5 -59.5t87 -84t47 -91.5t12.5 -87.5q0 -131 -106 -222.5t-256 -107.5v-4q61 -5 121 -22t116 -48.5t99 -73t68.5 -101t25.5 -127.5q0 -190 -144 -305t-419 -115q-33 0 -115 4t-133 4 h-359zM494 29q10 -1 32 -3.5t48 -4t59 -1.5q100 0 166 19t111 65t65 121.5t20 190.5q0 166 -71 259t-205 93h-225v-739zM494 797h188q125 0 190.5 69.5t65.5 247.5q0 83 -18.5 143.5t-47 94t-71 53.5t-81 25.5t-87.5 5.5q-87 0 -139 -6v-633z" />
<glyph unicode="C" horiz-adv-x="1478" d="M158 725q0 152 56 293t152 246t233 168t290 63q73 0 139.5 -20t115.5 -40t81 -20q25 0 43 6.5t27 14.5t20 22h31v-409h-23q-17 71 -36 124.5t-54.5 111.5t-82 95.5t-118 61.5t-162.5 24t-163.5 -25.5t-121.5 -67t-85.5 -103.5t-56.5 -123.5t-31.5 -141t-15 -142 t-3.5 -138.5q0 -169 23 -296t63 -208.5t101.5 -132t131 -70.5t158.5 -20q105 0 185 28t126 63.5t83 104.5t51.5 114t36.5 128h22v-436h-31q-12 14 -20.5 21t-27 14.5t-42.5 7.5q-30 0 -86.5 -18.5t-134 -37t-158.5 -18.5q-277 0 -481 201q-235 235 -235 555z" />
<glyph unicode="D" horiz-adv-x="1669" d="M61 0v29h228v1401h-228v28h381q37 0 115 4q20 0 58.5 1t56.5 1q125 0 200.5 -9.5t159.5 -37.5q122 -40 215 -109.5t150 -160t85.5 -195.5t28.5 -223q0 -130 -32 -241t-90.5 -193.5t-133 -141.5t-165.5 -98q-95 -41 -176 -52t-236 -11q-41 0 -135 4t-133 4h-349zM494 29 q106 -9 182 -9q79 0 140 8t126.5 30t120.5 68.5t96 115.5q64 106 90.5 221t26.5 258q0 134 -19 241t-63 197t-113.5 150t-173.5 93.5t-239 33.5q-21 0 -174 -6v-1401z" />
<glyph unicode="E" horiz-adv-x="1441" d="M61 0v29h228v1401h-228v28h1172v-354h-23q-28 86 -57 142t-72 100t-103.5 64t-143.5 20h-340v-633h133q94 0 147 25t87.5 87.5t64.5 188.5h22v-637h-22q-8 33 -11.5 47.5t-11.5 44.5t-14 44.5t-16 39.5t-20.5 37.5t-25 30.5t-31 27t-37.5 18.5t-46 13.5t-54 4h-165v-739 h387q85 0 155 32t113 79t74.5 107.5t45 109t19.5 92.5h23v-449h-1250z" />
<glyph unicode="F" horiz-adv-x="1366" d="M61 0v29h228v1401h-228v28h1172v-354h-23q-28 86 -57 142t-72 100t-103.5 64t-143.5 20h-340v-664h133q94 0 147 25t87.5 87.5t64.5 188.5h22v-637h-22q-8 33 -11.5 47.5t-11.5 44.5t-14 44.5t-16 39.5t-20.5 37.5t-25 30.5t-31 27t-37.5 18.5t-46 13.5t-54 4h-165v-708 h227v-29h-660z" />
<glyph unicode="G" horiz-adv-x="1630" d="M158 725q0 328 235 563q207 207 481 207q71 0 128.5 -12.5t87.5 -27.5t65.5 -27.5t67.5 -12.5q37 0 56 10t36 33h31v-409h-23q-6 35 -14.5 68t-25.5 76t-39.5 79.5t-58 73.5t-78.5 62.5t-103.5 41.5t-131.5 16q-85 0 -154.5 -22.5t-119 -60.5t-86.5 -95t-59 -119 t-36 -139.5t-19 -149t-5 -155.5q0 -466 180 -629q61 -55 126.5 -76.5t170.5 -21.5q66 0 127.5 21.5t113.5 63t83 111t31 156.5v172h-264v29h624v-29h-164v-465h-24q-23 24 -37.5 31.5t-44.5 7.5q-31 0 -75 -20t-87 -43.5t-119 -43.5t-164 -20q-144 0 -257 48t-218 153 q-109 109 -173 249.5t-64 305.5z" />
<glyph unicode="H" horiz-adv-x="1669" d="M61 0v29h228v1401h-228v28h660v-28h-227v-670h682v670h-228v28h660v-28h-228v-1401h228v-29h-660v29h228v702h-682v-702h227v-29h-660z" />
<glyph unicode="I" horiz-adv-x="794" d="M68 0v29h227v1401h-227v28h659v-28h-227v-1401h227v-29h-659z" />
<glyph unicode="J" horiz-adv-x="948" d="M29 193q0 63 35.5 100t101.5 37q55 0 79.5 -29.5t24.5 -62.5q0 -29 -18.5 -71.5t-18.5 -82.5q0 -86 103 -86q133 0 133 199v1233h-227v28h659v-28h-227v-1055q0 -86 -18 -157t-57 -128t-106.5 -89t-158.5 -32q-132 0 -218.5 62t-86.5 162z" />
<glyph unicode="K" horiz-adv-x="1517" d="M61 0v29h228v1401h-228v28h644v-28h-211v-652h20l619 652h-213v28h423v-28h-169l-521 -551l744 -850h135v-29h-592v29h184l-614 721h-16v-721h211v-29h-644z" />
<glyph unicode="L" horiz-adv-x="1402" d="M61 0v29h228v1401h-228v28h660v-28h-227v-1401h364q333 0 432 420h23v-449h-1252z" />
<glyph unicode="M" horiz-adv-x="1781" d="M53 0v29h228v1401h-228v28h461l379 -1102h4l379 1102h453v-28h-228v-1401h228v-29h-660v29h227v1388h-4l-489 -1419l-488 1405h-4v-1374h228v-29h-486z" />
<glyph unicode="N" horiz-adv-x="1478" d="M43 0v29h227v1401h-227v28h438l693 -1116h4v1088h-228v28h486v-28h-228v-1459h-41l-862 1375h-4v-1317h227v-29h-485z" />
<glyph unicode="O" horiz-adv-x="1703" d="M139 731q0 127 41.5 246.5t113 211.5t162 162t193.5 107t203 37q134 0 263 -59t228.5 -159t160.5 -243.5t61 -302.5q0 -142 -56 -280.5t-150 -244.5t-228 -171.5t-279 -65.5q-121 0 -232 41t-197.5 114t-151 168t-98.5 208.5t-34 230.5zM375 731q0 -379 109.5 -556 t367.5 -177t367.5 177t109.5 556q0 86 -5.5 160t-19.5 150.5t-37 137.5t-60 116t-86 91.5t-117 58t-152 21.5t-152 -21.5t-117 -58t-86 -91.5t-60 -116t-37 -137.5t-19.5 -150.5t-5.5 -160z" />
<glyph unicode="P" horiz-adv-x="1327" d="M61 0v29h228v1401h-228v28h385q37 0 115 4q19 0 57 1t56 1q236 0 389.5 -108t153.5 -281q0 -118 -80.5 -207.5t-208.5 -134.5t-281 -45q-57 0 -153 17v-676h227v-29h-660zM494 733q85 -16 165 -16q154 0 238 90.5t84 267.5q0 106 -20 175t-66 110.5t-113.5 58.5 t-169.5 17q-49 0 -118 -6v-697z" />
<glyph unicode="Q" horiz-adv-x="1703" d="M139 731q0 124 40.5 242t110.5 211t160 164t194.5 109t207.5 38q134 0 263 -59t228.5 -159t160.5 -243.5t61 -302.5q0 -142 -56 -280.5t-150 -244.5t-228 -171.5t-279 -65.5q-38 0 -78 6l-2 -6q51 -27 80 -40.5t84 -28t123 -21.5q103 -10 205 -127q33 -38 50 -54 t45 -32.5t61 -21t87 -4.5v-29q-91 2 -158.5 4.5t-125 10.5t-95.5 15t-74.5 24t-57.5 30t-49 42t-45 50t-48 63q-43 57 -94.5 96.5t-95.5 51.5q-153 41 -273.5 151.5t-186 263t-65.5 318.5zM375 731q0 -379 109.5 -556t367.5 -177t367.5 177t109.5 556q0 86 -5.5 160 t-19.5 150.5t-37 137.5t-60 116t-86 91.5t-117 58t-152 21.5t-152 -21.5t-117 -58t-86 -91.5t-60 -116t-37 -137.5t-19.5 -150.5t-5.5 -160z" />
<glyph unicode="R" horiz-adv-x="1478" d="M61 0v29h228v1401h-228v28h390q32 0 98 4q17 0 49 1t49 1q142 0 227 -16t158 -74q66 -52 98.5 -120.5t32.5 -135.5q0 -29 -6.5 -61t-29.5 -76t-60 -79.5t-105.5 -66t-158.5 -42.5v-5q326 -44 381 -237q17 -59 26 -206.5t17 -186.5q14 -64 42 -102t83 -38q60 0 106 43 l19 -22q-21 -16 -35 -25t-53.5 -18.5t-92.5 -9.5q-81 0 -135.5 19.5t-87 61.5t-48 97t-21.5 137l-15 186q-4 57 -18 102t-31.5 74t-44 49.5t-49 31t-53.5 16.5t-50 7t-45 1h-204v-739h227v-29h-660zM494 797h188q125 0 190.5 69.5t65.5 247.5q0 83 -18.5 143.5t-47 94 t-71 53.5t-81 25.5t-87.5 5.5q-87 0 -139 -6v-633z" />
<glyph unicode="S" horiz-adv-x="1366" d="M154 0v440h22q27 -126 75 -215t94 -132t115.5 -66t108 -26t103.5 -3h2q83 0 148.5 22t104.5 56t64.5 80t35 88.5t9.5 85.5q0 220 -274 303l-236 72q-170 52 -253 138t-83 222q0 187 126 308.5t323 121.5q65 0 119.5 -12.5t84 -27.5t61.5 -27.5t57 -12.5q26 0 36 7t25 36 h29v-371h-25q-13 77 -42.5 143t-75.5 120t-115.5 85t-153.5 31q-55 0 -110 -14t-108 -44t-86.5 -87.5t-33.5 -134.5q0 -51 18 -93t44 -69t69 -51.5t78 -38t86 -29.5l248 -78q6 -2 19 -6q34 -11 54.5 -18t59.5 -24t64 -34.5t57 -46.5t50.5 -62.5t32 -80.5t13.5 -102 q0 -96 -36.5 -183t-101.5 -154t-164.5 -107t-217.5 -40q-86 0 -136.5 6t-121.5 25q-10 3 -52.5 17.5t-69.5 21t-48 6.5q-28 0 -40.5 -11t-21.5 -34h-30z" />
<glyph unicode="T" horiz-adv-x="1400" d="M78 1083v375h1245v-375h-23q-19 70 -45 125t-51.5 91t-58 61.5t-58.5 39t-59.5 20.5t-54.5 8.5t-51 1.5h-119v-1401h227v-29h-659v29h227v1401h-119q-43 0 -73.5 -3.5t-79 -22.5t-85 -53.5t-75.5 -103t-66 -164.5h-22z" />
<glyph unicode="U" horiz-adv-x="1554" d="M43 1430v28h659v-28h-227v-990q0 -238 83.5 -340t254.5 -102q240 0 354 154q31 43 47 74t27.5 94t11.5 157v953h-227v28h485v-28h-227v-994q0 -91 -20 -161.5t-74 -141.5q-124 -164 -414 -164q-247 0 -376.5 123t-129.5 369v969h-227z" />
<glyph unicode="V" horiz-adv-x="1478" d="M-25 1430v28h633v-28h-227l455 -1188l448 1188h-223v28h442v-28h-184l-551 -1461h-51l-557 1461h-185z" />
<glyph unicode="W" horiz-adv-x="2199" d="M-20 1430v28h616v-28h-213l422 -1188h4l272 755l-155 433h-172v28h614v-28h-223l422 -1188h4l430 1188h-219v28h438v-28h-184l-531 -1461h-51l-352 983h-4l-357 -983h-55l-522 1461h-184z" />
<glyph unicode="X" horiz-adv-x="1554" d="M57 0v29h197l410 684l-437 717h-170v28h611v-28h-197l328 -539l327 539h-196v28h426v-28h-197l-342 -568l510 -833h170v-29h-614v29h196l-399 655l-391 -655h196v-29h-428z" />
<glyph unicode="Y" horiz-adv-x="1441" d="M-4 1430v28h627v-28h-205l409 -721l387 721h-206v28h438v-28h-199l-399 -748v-653h227v-29h-659v29h227v587l-461 814h-186z" />
<glyph unicode="Z" horiz-adv-x="1327" d="M92 0l854 1430h-317q-306 0 -391 -328h-23v356h977l-858 -1429h450q94 0 149.5 25.5t106.5 74.5q49 45 94.5 131t67.5 189h23v-449h-1133z" />
<glyph unicode="[" d="M250 -573v2031h256v-41h-215v-1949h215v-41h-256z" />
<glyph unicode="\" horiz-adv-x="606" d="M6 1458l41 12l553 -1470l-41 -12z" />
<glyph unicode="]" d="M63 -532h216v1949h-216v41h256v-2031h-256v41z" />
<glyph unicode="^" horiz-adv-x="1214" d="M244 625l354 833h18l353 -833h-43l-320 755l-317 -755h-45z" />
<glyph unicode="_" horiz-adv-x="1024" d="M0 -154h1024v-63h-1024v63z" />
<glyph unicode="`" d="M4 1436q0 29 21 50t49 21q26 0 44 -14.5t60 -67.5l242 -295h-29l-350 250q-37 26 -37 56z" />
<glyph unicode="a" horiz-adv-x="985" d="M84 170q0 35 8 64.5t20 50.5t33.5 39.5t40.5 29.5t50 23t52.5 18.5t58 17t56.5 17.5l51 17t41.5 14.5t36.5 14.5t28 15t23.5 17.5t16.5 20.5t13.5 25t7 30t5.5 37.5t1 44.5q0 109 -31.5 160t-126.5 51q-71 0 -113.5 -25.5t-42.5 -75.5q0 -26 6.5 -68t6.5 -51 q0 -29 -21.5 -48t-58.5 -19q-62 0 -81.5 22t-19.5 66q0 96 85 161.5t235 65.5q91 0 157.5 -23t103.5 -64t54 -89.5t17 -105.5v-510q0 -56 17.5 -78.5t53.5 -22.5q47 0 95 33l16 -22q-67 -52 -154 -52q-93 0 -138 39.5t-64 120.5h-5q-8 -22 -16 -37t-29 -40.5t-48 -41.5 t-73 -28.5t-104 -12.5q-264 0 -264 199zM260 193q0 -181 152 -181q52 0 91.5 19.5t61 48.5t35 69.5t17.5 75t4 72.5v205h-5q-4 -28 -67 -53l-154 -62q-135 -55 -135 -194z" />
<glyph unicode="b" horiz-adv-x="1214" d="M57 0v29h158v1419h-158v29h334v-762h4q30 85 102 137.5t179 52.5q114 0 214 -63.5t159 -170t59 -227.5q0 -123 -60.5 -232.5t-164 -175t-221.5 -65.5q-53 0 -97.5 16t-72.5 38.5t-50.5 53t-33 53t-17.5 46.5h-4v-178h-330zM391 401q0 -401 268 -401q55 0 96 14t67.5 45 t43 67.5t24.5 95t10.5 112.5t2.5 135q0 79 -6 139t-22 112.5t-42 85.5t-67.5 52t-97.5 19q-132 0 -205 -95q-42 -54 -57 -136.5t-15 -244.5z" />
<glyph unicode="c" horiz-adv-x="985" d="M92 434q0 131 64 239.5t173.5 170t239.5 61.5q57 0 113.5 -13.5t106.5 -39.5t81 -73t31 -107q0 -44 -28 -71.5t-78 -27.5q-40 0 -69.5 17t-29.5 51q0 20 14.5 70t14.5 67q0 45 -45.5 72t-110.5 27q-30 0 -53.5 -3t-53 -13.5t-51.5 -28.5t-44.5 -52t-37 -80t-23.5 -115.5 t-9 -156.5q0 -75 6.5 -134.5t25 -116t48 -94.5t78 -60.5t112.5 -22.5q58 0 105.5 12t80 34t55.5 44t38.5 52.5t22.5 48t14 40.5l30 -6q-5 -16 -8 -24.5t-12 -31t-17.5 -37t-24.5 -37.5t-34 -38t-44 -33t-55.5 -28.5t-69 -17.5t-83.5 -7q-66 0 -130 15t-126.5 50t-110 87 t-77 132t-29.5 179z" />
<glyph unicode="d" horiz-adv-x="1214" d="M106 444q0 121 59 227.5t159.5 170t214.5 63.5q107 0 178.5 -52.5t101.5 -137.5h4v733h-157v29h333v-1448h158v-29h-330v178h-4q-8 -24 -18 -46.5t-32 -53t-50 -53t-72.5 -38.5t-97.5 -16q-89 0 -171.5 39t-143 103.5t-96.5 151.5t-36 179zM311 469q0 -81 2.5 -135 t10.5 -112.5t24.5 -95t43 -67.5t67.5 -45t96 -14q268 0 268 401q0 163 -14.5 245t-56.5 136q-73 95 -205 95q-56 0 -97.5 -19t-68 -52.5t-42.5 -85.5t-22 -112t-6 -139z" />
<glyph unicode="e" horiz-adv-x="1024" d="M92 434q0 120 60.5 228.5t168 175.5t232.5 67q48 0 97.5 -12t100.5 -42t90 -74t64 -113.5t25 -155.5h-631q0 -11 -1 -41.5t-1 -54.5q0 -63 4.5 -113.5t21 -109t44.5 -97.5t79 -65.5t121 -26.5q58 0 105.5 12t80 34t55.5 44t38.5 52.5t22.5 48t14 40.5l30 -6 q-5 -16 -8 -24.5t-12 -31t-17.5 -37t-24.5 -37.5t-34 -38t-44 -33t-55.5 -28.5t-69 -17.5t-83.5 -7q-207 0 -340 128t-133 335zM301 537h420q4 39 4 104q0 130 -46.5 183t-133.5 53q-53 0 -94.5 -18.5t-67.5 -49t-44 -76t-26 -92t-12 -104.5z" />
<glyph unicode="f" horiz-adv-x="681" d="M57 0v29h158v821h-158v29h158v108q0 132 23.5 207t68.5 133q58 73 138.5 120.5t164.5 47.5q63 0 114 -19t80.5 -48.5t44.5 -61.5t15 -61q0 -43 -24 -74t-74 -31q-21 0 -40.5 4.5t-36.5 20.5t-17 41q0 24 19.5 63t19.5 62q0 75 -113 75q-90 0 -148.5 -77t-58.5 -226v-284 h254v-29h-254v-821h187v-29h-521z" />
<glyph unicode="g" horiz-adv-x="1062" d="M90 133q0 52 19 94.5t53 71.5t60.5 45.5t62.5 32.5q-119 81 -119 221q0 69 34 128.5t88 97.5t117.5 59.5t124.5 21.5q82 0 149 -32t107 -72q63 104 177 104q110 0 110 -92q0 -34 -22.5 -54t-49.5 -20q-25 0 -40.5 16t-21.5 35.5t-18.5 35.5t-31.5 16t-41.5 -17t-38.5 -41 q76 -82 76 -192q0 -119 -110.5 -202t-254.5 -83q-92 0 -207 53q-26 -12 -39 -18.5t-37 -21.5t-36 -29.5t-22.5 -37t-10.5 -48.5q0 -101 139 -101h324q148 0 230.5 -70.5t82.5 -213.5q0 -115 -66.5 -209.5t-172.5 -145.5t-224 -51q-159 0 -262.5 69t-103.5 177q0 98 69 167 t170 107v5q-137 0 -200.5 45t-63.5 149zM246 -291q0 -70 25 -121.5t67 -79t88 -40.5t96 -13q144 0 237 81t93 192q0 211 -234 211h-221q-37 -22 -55.5 -35.5t-45 -41t-38.5 -65.5t-12 -88zM319 604q0 -133 46.5 -200.5t166.5 -67.5q104 0 150.5 65.5t46.5 202.5 q0 44 -3 77.5t-15 72t-33 64t-58.5 42.5t-89.5 17q-106 0 -158.5 -65.5t-52.5 -207.5z" />
<glyph unicode="h" horiz-adv-x="1251" d="M51 0v29h158v1419h-158v29h334v-805h4q10 26 25.5 52.5t45.5 59.5t66.5 58t91.5 42t119 17q141 0 223 -68.5t82 -205.5v-598h158v-29h-491v29h157v661q0 83 -39 132.5t-116 49.5q-134 0 -230 -109.5t-96 -270.5v-463h158v-29h-492z" />
<glyph unicode="i" horiz-adv-x="606" d="M57 0v29h158v821h-158v29h334v-850h158v-29h-492zM190 1356q0 44 32.5 76t76.5 32t76.5 -32t32.5 -76t-32.5 -76.5t-76.5 -32.5t-76.5 32.5t-32.5 76.5z" />
<glyph unicode="j" horiz-adv-x="606" d="M-145 -399q0 47 26 72.5t66 25.5q36 0 54.5 -19.5t18.5 -52.5q0 -15 -7 -47t-7 -57q0 -39 25.5 -59.5t60.5 -20.5q123 0 123 203v1204h-158v29h334v-920q0 -123 -10 -204.5t-19.5 -109t-27.5 -63.5q-24 -48 -56 -82t-67 -52t-67 -26t-64 -8q-47 0 -96.5 19t-89 64 t-39.5 104zM190 1356q0 44 32.5 76t76.5 32t76.5 -32t32.5 -76t-32.5 -76.5t-76.5 -32.5t-76.5 32.5t-32.5 76.5z" />
<glyph unicode="k" horiz-adv-x="1099" d="M57 0v29h158v1419h-158v29h334v-979h23l407 352h-145v29h317v-29h-123l-319 -275l453 -546h88v-29h-461v29h145l-362 440h-23v-440h113v-29h-447z" />
<glyph unicode="l" horiz-adv-x="606" d="M57 0v29h158v1419h-158v29h334v-1448h158v-29h-492z" />
<glyph unicode="m" horiz-adv-x="1781" d="M41 0v29h158v821h-158v29h330v-215h4q83 237 319 237q108 0 184.5 -47.5t100.5 -146.5h4q31 83 107 138.5t194 55.5q299 0 299 -305v-567h158v-29h-492v29h158v696q0 69 -37.5 108t-103.5 39q-52 0 -102 -19.5t-92 -57.5t-67.5 -101.5t-25.5 -142.5v-522h158v-29h-492v29 h158v667q0 87 -36 131.5t-99 44.5q-37 0 -75.5 -13t-78 -43t-70 -73.5t-50 -111t-19.5 -148.5v-454h157v-29h-491z" />
<glyph unicode="n" horiz-adv-x="1251" d="M51 0v29h158v821h-158v29h330v-220h4q14 31 26.5 54t43.5 61.5t66 63t92 44t124 19.5q141 0 223 -68.5t82 -205.5v-598h158v-29h-491v29h157v661q0 83 -39 132.5t-116 49.5q-134 0 -230 -109.5t-96 -270.5v-463h158v-29h-492z" />
<glyph unicode="o" horiz-adv-x="1138" d="M92 438q0 78 28.5 151.5t76.5 130t109 98.5t129.5 64.5t133.5 22.5q82 0 167 -35.5t154 -96t113 -149.5t44 -186q0 -125 -69.5 -234t-179.5 -171t-229 -62t-229 62t-179 171t-69 234zM297 438q0 -112 15 -193.5t38.5 -128t61 -73.5t73 -35t84.5 -8t85 8t73.5 35t61 73.5 t38.5 128t15 193.5q0 239 -65.5 339t-207.5 100t-207 -100t-65 -339z" />
<glyph unicode="p" horiz-adv-x="1214" d="M57 -545h158v1395h-158v29h330v-172h4q32 91 104.5 144.5t180.5 53.5q114 0 214 -63.5t159 -170t59 -227.5q0 -123 -60.5 -232.5t-164 -175t-221.5 -65.5q-65 0 -117 22.5t-81.5 57.5t-45 63.5t-23.5 55.5h-4v-715h158v-28h-492v28zM391 401q0 -401 268 -401q55 0 96 14 t67.5 45t43 67.5t24.5 95t10.5 112.5t2.5 135q0 79 -6 139t-22 112.5t-42 85.5t-67.5 52t-97.5 19q-132 0 -205 -95q-42 -54 -57 -136.5t-15 -244.5z" />
<glyph unicode="q" horiz-adv-x="1214" d="M106 444q0 121 59 227.5t159.5 170t214.5 63.5q108 0 180 -53t104 -145h4v172h330v-29h-158v-1395h158v-28h-491v28h157v715h-4q-8 -27 -23.5 -55.5t-45 -63.5t-81 -57.5t-116.5 -22.5q-89 0 -171.5 39t-143 103.5t-96.5 151.5t-36 179zM311 469q0 -81 2.5 -135 t10.5 -112.5t24.5 -95t43 -67.5t67.5 -45t96 -14q268 0 268 401q0 163 -14.5 245t-56.5 136q-73 95 -205 95q-56 0 -97.5 -19t-68 -52.5t-42.5 -85.5t-22 -112t-6 -139z" />
<glyph unicode="r" horiz-adv-x="833" d="M55 0v29h158v821h-158v29h330v-207h4q8 28 20 55t35 59.5t51 57t70.5 41t91.5 16.5q89 0 136 -51t47 -119q0 -113 -103 -113q-43 0 -66.5 15.5t-23.5 42.5q0 22 13.5 51.5t13.5 67.5q0 65 -72 65q-73 0 -143 -102t-70 -260v-469h178v-29h-512z" />
<glyph unicode="s" horiz-adv-x="872" d="M115 0v287h22q82 -287 324 -287q72 0 120 43t48 127q0 70 -34 103.5t-99 56.5l-160 55q-35 12 -54.5 20t-52 28.5t-50.5 44.5t-32 64.5t-14 92.5q0 116 84 193t211 77q67 0 121.5 -21.5t75.5 -21.5q22 0 32 17h23v-234h-23q-17 53 -33.5 89.5t-43 71.5t-64.5 53t-88 18 q-97 0 -152 -44t-55 -118q0 -62 43 -97t139 -65l150 -49q219 -74 219 -242q0 -119 -88.5 -205t-237.5 -86q-68 0 -152.5 29t-107.5 29q-32 0 -49 -29h-22z" />
<glyph unicode="t" horiz-adv-x="681" d="M35 850v29h158v264q38 -15 79 -15q55 0 97 31v-280h290v-29h-290v-670q0 -180 123 -180q68 0 113.5 49.5t58.5 122.5l28 -10q-6 -32 -18.5 -60.5t-36.5 -60.5t-67.5 -51t-102.5 -19q-148 0 -211 57.5t-63 170.5v651h-158z" />
<glyph unicode="u" horiz-adv-x="1214" d="M49 850v29h334v-629q0 -118 38.5 -184t135.5 -66q45 0 93 27.5t88.5 74.5t66.5 119.5t26 153.5v475h-155v29h332v-850h157v-29h-329v207h-5q-21 -47 -45.5 -84.5t-61 -74t-89.5 -57t-117 -20.5q-134 0 -213 58q-21 15 -33 27.5t-29.5 39.5t-26.5 70t-9 102v582h-158z" />
<glyph unicode="v" horiz-adv-x="985" d="M-37 850v29h496v-29h-168l264 -643l274 643h-167v29h311v-29h-111l-387 -918l-373 918h-139z" />
<glyph unicode="w" horiz-adv-x="1517" d="M-8 850v29h493v-29h-170l230 -639l213 506l-51 133h-86v29h407v-29h-137l237 -635l256 635h-192v29h334v-29h-109l-366 -918l-279 744l-311 -744l-330 918h-139z" />
<glyph unicode="x" horiz-adv-x="985" d="M0 850v29h481v-29h-162l211 -307l222 307h-152v29h301v-29h-108l-244 -336l334 -485h112v-29h-479v29h162l-240 348l-258 -348h152v-29h-301v29h108l281 377l-305 444h-115z" />
<glyph unicode="y" horiz-adv-x="985" d="M-45 -428q0 49 28 75.5t70 26.5q36 0 66.5 -16.5t30.5 -54.5q0 -19 -17.5 -54.5t-17.5 -56.5q0 -25 13 -34t40 -9q65 0 111.5 63t115.5 232l90 229l-354 877h-141v29h502v-29h-173l265 -643l276 643h-170v29h314v-29h-111l-338 -791q-26 -58 -143 -356 q-61 -156 -120.5 -222.5t-152.5 -66.5q-55 0 -94.5 17.5t-57.5 44.5t-25 50.5t-7 45.5z" />
<glyph unicode="z" horiz-adv-x="872" d="M74 0l510 850h-176q-43 0 -63 -1t-50 -6.5t-46 -17.5t-37.5 -34.5t-39 -57t-37.5 -84.5h-16l28 230h650l-510 -850h288q29 0 54.5 7t43 15.5t34.5 28t26.5 31.5t21.5 39t16 38t14 41t12 37h16l-27 -266h-712z" />
<glyph unicode="{" horiz-adv-x="681" d="M70 436v13q91 19 145 42.5t84 63t39.5 87t9.5 126.5v219q0 60 0.5 89.5t4 76t11 73t20.5 59.5t34 58t51 48q69 55 211 66q7 1 10 1v-37q-49 -2 -89 -11.5t-69.5 -22.5t-52.5 -34.5t-37.5 -40.5t-25 -49t-16 -51.5t-8 -56t-3 -54t-0.5 -54.5v-160q0 -179 -13 -251 t-57 -116q-63 -63 -192 -78q130 -15 192 -77q44 -44 57 -116t13 -251v-160q0 -35 0.5 -54.5t3 -54t8 -56t16 -51.5t25 -49t37.5 -41t52.5 -35t69.5 -22.5t89 -11.5v-36q-104 8 -157 30q-36 15 -64 37q-30 23 -51 48t-34 58t-20.5 59.5t-11 73t-4 76t-0.5 89.5v219 q0 79 -9.5 126.5t-39.5 87t-84 63t-145 42.5z" />
<glyph unicode="|" horiz-adv-x="454" d="M207 -512v2048h41v-2048h-41z" />
<glyph unicode="}" horiz-adv-x="681" d="M-8 -537q49 2 89 11.5t69.5 22.5t52.5 35t37.5 41t25 49t16 51.5t8 56t3 54t0.5 54.5v160q0 181 12.5 252t56.5 115q62 62 193 77q-130 15 -193 78q-44 44 -56.5 115t-12.5 252v160q0 35 -0.5 54.5t-3 54t-8 56t-16 51.5t-25 49t-37.5 40.5t-52.5 34.5t-69.5 22.5 t-89 11.5v37q104 -8 157 -30q36 -15 64 -37q30 -23 51 -48t34 -58t20.5 -59.5t11 -73t4 -76t0.5 -89.5v-219q0 -79 9.5 -126.5t39.5 -87t84 -63t145 -42.5v-13q-91 -19 -145 -42.5t-84 -63t-39.5 -87t-9.5 -126.5v-219q0 -60 -0.5 -89.5t-4 -76t-11 -73t-20.5 -59.5t-34 -58 t-51 -48q-69 -55 -211 -66q-7 -1 -10 -1v36z" />
<glyph unicode="~" horiz-adv-x="1214" d="M33 332q8 28 13.5 45t19 49t26.5 53t35.5 47.5t47.5 42t61 26.5t77 11q54 0 179 -43l253 -96q121 -47 168 -47q155 0 232 235h37q-8 -26 -14 -43t-19.5 -49t-27 -53.5t-36 -48.5t-47.5 -43t-59.5 -27.5t-73.5 -11.5q-58 0 -176 45l-250 96q-112 45 -178 45 q-43 0 -79.5 -18t-57 -35t-43 -59t-27.5 -54.5t-20 -56.5q-3 -7 -4 -10h-37z" />
<glyph unicode="&#xa0;" />
<glyph unicode="&#xa1;" horiz-adv-x="643" d="M213 797q0 44 32.5 76t76.5 32t76 -32t32 -76t-32 -76.5t-76 -32.5t-76.5 32.5t-32.5 76.5zM223 -516q0 4 15 188l63 846h41l64 -846q14 -171 14 -188q0 -42 -27 -69t-71 -27t-71.5 27t-27.5 69z" />
<glyph unicode="&#xa2;" horiz-adv-x="1064" d="M121 434q0 131 64 239.5t173.5 170t239.5 61.5q57 0 96 -10l66 164l26 -8l-65 -162q91 -23 150 -77t59 -140q0 -44 -28.5 -71.5t-78.5 -27.5q-40 0 -69 17t-29 51q0 20 14.5 70t14.5 67q0 44 -47 74l-306 -762q65 -90 195 -90q50 0 92.5 10t72 24t54.5 36.5t39.5 41.5 t27.5 45t18 40t11 34l31 -6q-5 -16 -7.5 -24.5t-12 -31t-18 -37t-24.5 -37.5t-34 -38t-44 -33t-55.5 -28.5t-69 -17.5t-83.5 -7q-120 0 -221 49l-74 -188l-27 8l76 191q-103 54 -165 154t-62 249zM326 428q0 -209 59 -307l295 741q-47 15 -88 15q-45 0 -77 -6t-70.5 -32 t-62 -72t-40 -132t-16.5 -207z" />
<glyph unicode="&#xa3;" horiz-adv-x="1290" d="M150 770v29h200q-20 54 -29 80.5t-18.5 72.5t-9.5 88q0 64 19.5 128.5t58 122t91 102t124 70.5t151.5 26q129 0 220.5 -65.5t91.5 -159.5q0 -123 -115 -123q-35 0 -56.5 19t-21.5 50q0 34 21.5 77.5t21.5 72.5q0 49 -49 74.5t-109 25.5q-58 0 -100.5 -19t-75.5 -61.5 t-50 -118.5t-17 -184q0 -34 14 -278h356v-29h-354q39 -409 39 -440q0 -80 -16 -137q232 -37 331 -37q120 0 171 26.5t77 104.5l25 -11q-23 -66 -46 -113t-58 -94.5t-85 -72.5t-112 -25q-120 0 -222 76l-108 76q-45 -67 -90 -95t-113 -28q-62 0 -100.5 31t-38.5 82q0 15 7 32 t22.5 37t49 32.5t79.5 12.5q49 0 184 -30q8 47 8 94q0 63 -26.5 145t-70 183.5t-59.5 150.5h-212zM197 113q0 -48 34 -69t80 -21q104 0 176 114q-81 62 -178 62q-41 0 -76.5 -23t-35.5 -63z" />
<glyph unicode="&#xa4;" horiz-adv-x="1138" d="M131 319l129 132q-106 120 -106 280q0 75 28 150t80 131l-131 131l27 26l131 -131q125 109 280 109q154 0 279 -109l133 131l27 -26l-131 -131q108 -124 108 -281q0 -160 -108 -280l131 -132l-27 -26l-133 131q-58 -55 -133 -82t-148 -27q-53 0 -99.5 11t-83 32t-54.5 34 t-41 32l-131 -131zM195 731q0 -155 109.5 -265t264.5 -110t265 110t110 265t-110 265t-265 110t-264.5 -110t-109.5 -265z" />
<glyph unicode="&#xa5;" horiz-adv-x="1138" d="M-10 1430v28h526v-28h-180l330 -750l292 750h-157v28h348v-28h-154l-204 -529h260v-29h-273l-86 -225h359v-29h-363v-589h180v-29h-557v29h181v589h-377v29h372l-104 225h-268v29h256l-240 529h-141z" />
<glyph unicode="&#xa6;" horiz-adv-x="454" d="M207 -358v716h41v-716h-41zM207 666v716h41v-716h-41z" />
<glyph unicode="&#xa7;" horiz-adv-x="1064" d="M115 514q0 61 18 117t42 92t56.5 68t52 46t38.5 25q-27 25 -43.5 44.5t-40.5 54t-36 77.5t-12 92q0 67 28.5 132t78.5 117t126.5 84t164.5 32q143 0 226 -65.5t83 -161.5q0 -57 -22.5 -85t-75.5 -28q-78 0 -78 70q0 33 15.5 74.5t15.5 64.5q0 46 -42.5 74t-121.5 28 q-130 0 -200.5 -74t-70.5 -182q0 -85 47 -145.5t132 -112.5l276 -168q105 -64 141.5 -126.5t36.5 -163.5q0 -52 -15.5 -102t-35.5 -84.5t-53.5 -72t-54 -56t-52.5 -44.5q170 -127 170 -301q0 -66 -27 -136t-76 -131t-129 -100.5t-175 -39.5q-91 0 -164 24t-115 62.5t-64 82 t-22 87.5q0 47 23 78.5t73 31.5q95 0 95 -74q0 -28 -20.5 -68.5t-20.5 -64.5q0 -14 11 -34t33.5 -43t68.5 -38.5t106 -15.5q121 0 197.5 83t76.5 212q0 160 -164 262l-321 195q-99 60 -139.5 129.5t-40.5 177.5zM184 621q0 -68 50.5 -136.5t125.5 -113.5l359 -217 q145 106 145 237q0 73 -29.5 120.5t-97.5 88.5l-340 207q-6 4 -51 37q-69 -38 -115.5 -95.5t-46.5 -127.5z" />
<glyph unicode="&#xa8;" d="M0 1356q0 38 28 66t66 28t66 -28t28 -66t-28 -66t-66 -28t-66 28t-28 66zM381 1356q0 38 28 66t66 28t66 -28t28 -66t-28 -66t-66 -28t-66 28t-28 66z" />
<glyph unicode="&#xa9;" horiz-adv-x="1705" d="M92 733q0 155 60.5 296t162.5 243t243 162.5t296 60.5t296 -60.5t243 -162.5t162.5 -243t60.5 -296t-60.5 -296t-162.5 -243t-243 -162.5t-296 -60.5t-296 60.5t-243 162.5t-162.5 243t-60.5 296zM133 733q0 -146 57.5 -279.5t154 -230t230 -154t279.5 -57.5t279.5 57.5 t230 154t154 230t57.5 279.5t-57.5 279.5t-154 230t-230 154t-279.5 57.5t-279.5 -57.5t-230 -154t-154 -230t-57.5 -279.5zM438 739q0 122 56.5 227.5t158 169.5t224.5 64q58 0 120 -23.5t80 -23.5q31 0 56 25h18v-246h-14q-12 54 -29 94t-47 78.5t-80 59t-117 20.5 q-54 0 -97.5 -15.5t-72.5 -40t-50.5 -62t-33.5 -74.5t-19 -84.5t-9 -85.5t-2 -83q0 -126 20 -213.5t59.5 -135t88.5 -67.5t116 -20q36 0 66.5 5.5t54 13t44.5 22t35 27t27 34t21 36.5t16.5 41t13 41t11.5 42h14v-262h-18q-23 27 -53 27q-16 0 -90 -22.5t-138 -22.5 q-164 0 -288 121q-142 142 -142 333z" />
<glyph unicode="&#xaa;" horiz-adv-x="641" d="M59 1055q0 58 32.5 84.5t105.5 50.5l143 47q70 24 70 115q0 58 -20.5 86t-80.5 28q-46 0 -74 -14t-28 -41q0 -11 4 -31t4 -32q0 -18 -13.5 -29.5t-37.5 -11.5q-41 0 -53.5 13t-12.5 40q0 57 55.5 96t153.5 39q114 0 164.5 -48t50.5 -122v-301q0 -34 11 -46.5t36 -12.5 q32 0 62 18l10 -16q-45 -31 -100 -31q-61 0 -90.5 23.5t-40.5 70.5h-4q-3 -13 -11.5 -26.5t-26.5 -30t-53.5 -27t-83.5 -10.5q-172 0 -172 119zM176 1067q0 -44 20 -70t76 -26q134 0 134 159v121h-5q-11 -22 -43 -32l-98 -35q-84 -31 -84 -117z" />
<glyph unicode="&#xab;" horiz-adv-x="833" d="M123 446q0 66 25 118.5t68.5 86.5t97.5 54.5t118 29.5l6 -22q-92 -25 -140 -87t-48 -180t48 -179.5t140 -86.5l-6 -22q-64 9 -118 29.5t-98 54.5t-68.5 86t-24.5 118zM395 446q0 66 25 118.5t69 86.5t98 54.5t118 29.5l6 -22q-92 -25 -140.5 -87t-48.5 -180t48 -179.5 t141 -86.5l-6 -22q-64 9 -118 29.5t-98 54.5t-69 86t-25 118z" />
<glyph unicode="&#xac;" horiz-adv-x="1214" d="M115 649v37h983v-389h-41v352h-942z" />
<glyph unicode="&#xad;" horiz-adv-x="757" d="M188 379v135h381v-135h-381z" />
<glyph unicode="&#xae;" horiz-adv-x="1003" d="M121 1114q0 157 111.5 269t269.5 112q157 0 269 -112t112 -269q0 -158 -112 -269.5t-269 -111.5q-158 0 -269.5 111.5t-111.5 269.5zM141 1114q0 -149 106 -254.5t255 -105.5t254.5 105.5t105.5 254.5t-105.5 255t-254.5 106t-255 -106t-106 -255zM332 918v8h63v385h-63 v8h106q9 0 28 1t28 1q72 0 104 -25q37 -27 37 -71q0 -10 -3.5 -21.5t-13 -26t-30.5 -26t-51 -14.5v-2q90 -16 104 -66q4 -16 6.5 -56t5.5 -52q9 -39 33 -39q19 0 31 12l4 -6q-20 -15 -49 -15q-42 0 -59.5 21t-20.5 65l-4 54q-2 26 -10.5 42.5t-23 23t-23.5 8t-23 1.5h-57 v-202h63v-8h-182zM451 1137h51q34 0 51.5 19.5t17.5 68.5q0 53 -23 70.5t-61 17.5q-28 0 -36 -2v-174z" />
<glyph unicode="&#xaf;" d="M-2 1233v63h573v-63h-573z" />
<glyph unicode="&#xb0;" horiz-adv-x="819" d="M133 1212q0 116 80.5 196.5t196.5 80.5q115 0 195.5 -80.5t80.5 -196.5t-80 -196t-196 -80t-196.5 80.5t-80.5 195.5zM174 1212q0 -98 69 -166.5t167 -68.5t166.5 68.5t68.5 166.5t-68.5 167t-166.5 69t-167 -69t-69 -167z" />
<glyph unicode="&#xb1;" horiz-adv-x="1214" d="M115 0v37h983v-37h-983zM115 539v36h471v408h41v-408h471v-36h-471v-404h-41v404h-471z" />
<glyph unicode="&#xb2;" horiz-adv-x="681" d="M20 596v22q84 67 136.5 112t117.5 112t101.5 124.5t62 132t25.5 152.5q0 91 -38 150t-120 59q-63 0 -100 -25t-37 -67q0 -10 8 -35t8 -43q0 -20 -14 -32.5t-37 -12.5q-76 0 -76 70t78 122t178 52q123 0 204 -77.5t81 -178.5q0 -79 -62 -169.5t-143 -164.5l-217 -194h301 q97 0 111 120h24v-229h-592z" />
<glyph unicode="&#xb3;" horiz-adv-x="681" d="M41 778l31 4q19 -91 77.5 -134.5t135.5 -43.5q109 0 148.5 62.5t39.5 187.5q0 117 -38 169t-124 52q-16 0 -33.5 -3t-29.5 -6.5t-28.5 -10t-23 -10t-21 -11.5t-15.5 -8l-19 27q7 3 25.5 12t38.5 17.5t43 13.5q32 8 49.5 13.5t45.5 17t44 26.5t32.5 37t24 54t7.5 73 q0 74 -31 108.5t-96 34.5q-63 0 -95 -27.5t-32 -56.5q0 -12 12 -39t12 -37q0 -43 -61 -43q-60 0 -60 60q0 65 65 118.5t171 53.5q115 0 178.5 -59.5t63.5 -131.5q0 -35 -15 -65t-36 -49.5t-54 -37.5t-57.5 -27.5t-57.5 -20.5v-4q122 -21 188 -89t66 -149q0 -111 -93 -196 t-224 -85q-43 0 -80 9.5t-61.5 23.5t-44.5 35.5t-31 38.5t-20 40t-11.5 32.5t-5.5 23.5z" />
<glyph unicode="&#xb4;" d="M199 1130l241 295q42 52 60 67t45 15q28 0 48.5 -21t20.5 -50q0 -30 -36 -56l-351 -250h-28z" />
<glyph unicode="&#xb5;" horiz-adv-x="1214" d="M49 850v29h334v-629q0 -118 38.5 -184t135.5 -66q45 0 93 27.5t88.5 74.5t66.5 119.5t26 153.5v475h-157v29h334v-850h157v-29h-329v207h-5q-42 -101 -119 -168.5t-175 -67.5q-97 0 -150 90h-4v-634h-176v1423h-158z" />
<glyph unicode="&#xb6;" horiz-adv-x="1214" d="M53 1032q0 123 62 221.5t168 145.5q84 38 162.5 48.5t197.5 10.5h522v-28h-159v-1127q0 -198 -49 -334.5t-164 -222.5q-69 -50 -151.5 -79.5t-134 -36.5t-99.5 -7q-62 0 -109.5 15.5t-71.5 36.5t-39 49t-18.5 46t-3.5 33q0 50 29.5 77.5t78.5 27.5q39 0 62.5 -17 t23.5 -45q0 -10 -12 -54.5t-12 -51.5q0 -22 15.5 -40.5t49.5 -18.5q22 0 48.5 11t62 48t57.5 94q43 112 43 469v291q-188 4 -305 49q-109 43 -181.5 149.5t-72.5 239.5zM410 -348q85 3 152 28.5t110.5 60t74.5 92t46.5 106.5t24 123t10 121t1.5 120v1127h-186v-1127 q0 -111 -2.5 -183t-10 -148.5t-23 -123.5t-41.5 -90t-64.5 -68t-91.5 -38z" />
<glyph unicode="&#xb7;" d="M176 541q0 44 32.5 76t76.5 32t76 -32t32 -76t-32 -76.5t-76 -32.5t-76.5 32.5t-32.5 76.5z" />
<glyph unicode="&#xb8;" d="M180 -434l17 24q74 -51 135 -51q104 0 104 162q0 135 -96 135q-43 0 -82 -26l-29 30l152 160h41l-141 -147l4 -5q42 29 100 29q20 0 45 -7.5t54.5 -25t49 -55.5t19.5 -90q0 -89 -62.5 -142t-152.5 -53q-85 0 -158 62z" />
<glyph unicode="&#xb9;" horiz-adv-x="681" d="M104 1298q95 47 162 90t125 101h33v-864h143v-29h-405v29h143v753q-16 -11 -28 -18.5t-26.5 -16t-21 -12.5t-24.5 -13l-23 -11.5t-30 -14.5t-33 -16z" />
<glyph unicode="&#xba;" horiz-adv-x="739" d="M70 1219q0 79 48 144t116 98.5t135 33.5q108 0 204.5 -79.5t96.5 -196.5q0 -120 -96.5 -201.5t-204.5 -81.5q-67 0 -135 34.5t-116 101t-48 147.5zM207 1221q0 -134 38 -195t124 -61q87 0 125 60.5t38 195.5q0 123 -36 184t-127 61q-90 0 -126 -61t-36 -184z" />
<glyph unicode="&#xbb;" horiz-adv-x="833" d="M123 180q92 25 140 86.5t48 179.5t-48 180t-140 87l6 22q64 -9 118 -29.5t97.5 -54.5t68.5 -86.5t25 -118.5t-24.5 -118t-68.5 -86t-98 -54.5t-118 -29.5zM395 180q93 25 141 86.5t48 179.5t-48.5 180t-140.5 87l6 22q64 -9 118 -29.5t98 -54.5t69 -86.5t25 -118.5 t-25 -118t-69 -86t-98 -54.5t-118 -29.5z" />
<glyph unicode="&#xbc;" horiz-adv-x="1708" d="M166 1298q95 47 162 90t125 101h32v-864h144v-29h-406v29h144v753q-61 -41 -187 -102zM412 -10l778 1499l37 -19l-778 -1499zM901 211q3 6 28.5 56t31.5 61.5t30 58t32.5 63t30.5 57t33 60t30.5 53t32.5 54.5t29.5 45.5t30.5 44.5q65 90 89.5 109.5t66.5 19.5 q55 0 55 -33q0 -13 -18.5 -31t-73.5 -70.5t-112 -115.5q-148 -164 -269 -399h320v325h118v-325h111v-33h-111v-182h111v-29h-340v29h111v182h-367z" />
<glyph unicode="&#xbd;" horiz-adv-x="1708" d="M166 1298q95 47 162 90t125 101h32v-864h144v-29h-406v29h144v753q-61 -41 -187 -102zM412 -10l778 1499l37 -19l-778 -1499zM918 0v23q85 67 136.5 111.5t117 112t101.5 124.5t61.5 131.5t25.5 152.5q0 91 -38 150t-120 59q-63 0 -100 -25t-37 -67q0 -10 8 -35t8 -43 q0 -20 -14 -32.5t-37 -12.5q-76 0 -76 70t78 122t178 52q123 0 204 -77.5t81 -178.5q0 -79 -62 -169.5t-143 -164.5l-217 -194h301q97 0 111 120h24v-229h-591z" />
<glyph unicode="&#xbe;" horiz-adv-x="1708" d="M102 778l31 4q19 -91 77.5 -134.5t135.5 -43.5q109 0 149 63t40 187q0 117 -38 169t-124 52q-14 0 -28 -2t-27.5 -5.5t-24 -7t-23 -9.5t-19 -9t-17.5 -9t-13 -7l-18 27q7 3 25 12t38 17.5t43 13.5q32 8 49.5 13.5t45.5 17t44 26.5t32.5 37t24 54t7.5 73q0 74 -31 108.5 t-96 34.5q-63 0 -95 -27.5t-32 -56.5q0 -12 12.5 -39t12.5 -37q0 -43 -62 -43q-59 0 -59 60q0 65 64.5 118.5t170.5 53.5q115 0 178.5 -59.5t63.5 -131.5q0 -43 -20.5 -77.5t-58 -58t-67.5 -37t-73 -27.5v-4q122 -21 188 -89t66 -149q0 -111 -93.5 -196t-224.5 -85 q-43 0 -80 9.5t-61.5 23.5t-44.5 35.5t-31 38.5t-20 40t-11.5 32.5t-5.5 23.5zM412 -10l778 1499l37 -19l-778 -1499zM901 211q3 6 28.5 56t31.5 61.5t30 58t32.5 63t30.5 57t33 60t30.5 53t32.5 54.5t29.5 45.5t30.5 44.5q65 90 89.5 109.5t66.5 19.5q55 0 55 -33 q0 -13 -18.5 -31t-73.5 -70.5t-112 -115.5q-148 -164 -269 -399h320v325h118v-325h111v-33h-111v-182h111v-29h-340v29h111v182h-367z" />
<glyph unicode="&#xbf;" horiz-adv-x="833" d="M115 -250q0 62 9.5 117t30.5 104.5t52.5 85t78 56t103.5 20.5q81 0 146 -70v455h32v-514h-32q-23 49 -55.5 74.5t-82.5 25.5q-51 0 -80.5 -29.5t-45 -107.5t-15.5 -217q0 -130 17.5 -206t44.5 -102t69 -26q43 0 83 20.5t40 61.5q0 25 -24.5 64.5t-24.5 68.5q0 30 24 51 t58 21q40 0 67 -21t27 -63q0 -33 -16 -71.5t-46.5 -75t-83 -60.5t-116.5 -24q-120 0 -190 93.5t-70 268.5zM444 797q0 44 32.5 76t76.5 32t76.5 -32t32.5 -76t-32.5 -76.5t-76.5 -32.5t-76.5 32.5t-32.5 76.5z" />
<glyph unicode="&#xc0;" horiz-adv-x="1517" d="M-2 0v29h180l553 1466h49l557 -1466h183v-29h-631v29h227l-215 569h-475l-215 -569h227v-29h-440zM438 627h451l-225 596zM479 1855q0 29 21 50.5t49 21.5q26 0 44 -14.5t60 -67.5l242 -295h-29l-350 250q-37 26 -37 55z" />
<glyph unicode="&#xc1;" horiz-adv-x="1517" d="M-2 0v29h180l553 1466h49l557 -1466h183v-29h-631v29h227l-215 569h-475l-215 -569h227v-29h-440zM438 627h451l-225 596zM674 1550l241 295q42 52 60 67t45 15q28 0 49 -21.5t21 -50.5t-37 -55l-351 -250h-28z" />
<glyph unicode="&#xc2;" horiz-adv-x="1517" d="M-2 0v29h180l553 1466h49l557 -1466h183v-29h-631v29h227l-215 569h-475l-215 -569h227v-29h-440zM438 627h451l-225 596zM471 1550l231 342h115l232 -342h-29l-260 215l-260 -215h-29z" />
<glyph unicode="&#xc3;" horiz-adv-x="1517" d="M-2 0v29h180l553 1466h49l557 -1466h183v-29h-631v29h227l-215 569h-475l-215 -569h227v-29h-440zM438 627h451l-225 596zM440 1599q17 90 75.5 146.5t121.5 56.5q21 0 49 -8.5t40.5 -14.5t51.5 -24q92 -49 140 -49q31 0 56.5 13t41.5 32.5t23.5 33t11.5 23.5h28 q-2 -17 -13 -46t-33.5 -68.5t-65 -67t-95.5 -27.5q-27 0 -55 8.5t-45 16.5t-47 25q-2 1 -17.5 9.5t-19 10t-17 8t-19.5 8.5t-17 5.5t-20 4.5t-19 1q-31 0 -56 -11t-39 -29t-21 -31t-11 -26h-29z" />
<glyph unicode="&#xc4;" horiz-adv-x="1517" d="M-2 0v29h180l553 1466h49l557 -1466h183v-29h-631v29h227l-215 569h-475l-215 -569h227v-29h-440zM438 627h451l-225 596zM475 1735q0 38 28 66t66 28t66.5 -28t28.5 -66t-28.5 -66.5t-66.5 -28.5t-66 28.5t-28 66.5zM856 1735q0 38 28 66t66 28t66 -28t28 -66t-28 -66.5 t-66 -28.5t-66 28.5t-28 66.5z" />
<glyph unicode="&#xc5;" horiz-adv-x="1517" d="M-2 0v29h180l553 1466h49l557 -1466h183v-29h-631v29h227l-215 569h-475l-215 -569h227v-29h-440zM438 627h451l-225 596zM571 1726q0 48 21 86.5t52.5 59t61.5 31t54 10.5t54 -10.5t61 -31t52 -59t21 -86.5q0 -73 -57 -128.5t-131 -55.5t-131.5 55.5t-57.5 128.5z M662 1726q0 -90 23.5 -125.5t74.5 -35.5t74.5 35.5t23.5 125.5q0 37 -3 62t-12.5 50.5t-30 38.5t-52.5 13t-52.5 -13t-30 -38.5t-12.5 -50.5t-3 -62z" />
<glyph unicode="&#xc6;" horiz-adv-x="1933" d="M-18 0v29h122l818 1401h-201v28h1010v-338h-23q-34 120 -104 209q-41 53 -89 77t-131 24h-225v-633h82q54 0 95 21.5t67 61.5t41.5 84.5t25.5 102.5h23v-569h-23q-10 58 -25.5 102.5t-41.5 84.5t-67 61.5t-95 21.5h-82v-739h215q73 0 121 10.5t73 26t54 45.5 q98 104 152 299h22v-410h-1069v29h227v575h-481l-334 -575h228v-29h-385zM489 633h465v797h-4z" />
<glyph unicode="&#xc7;" horiz-adv-x="1478" d="M158 725q0 372 291 612q100 82 200 120t240 38q73 0 139.5 -20t115.5 -40t81 -20q25 0 43 6.5t27 14.5t20 22h31v-409h-23q-17 71 -36 124.5t-54.5 111.5t-82 95.5t-118 61.5t-162.5 24t-163.5 -25.5t-121.5 -67t-85.5 -103.5t-56.5 -123.5t-31.5 -141t-15 -142 t-3.5 -138.5q0 -169 23 -296t63 -208.5t101.5 -132t131 -70.5t158.5 -20q105 0 185 28t126 63.5t83 104.5t51.5 114t36.5 128h22v-436h-31q-12 14 -20.5 21t-27 14.5t-42.5 7.5q-30 0 -86.5 -18.5t-134 -37t-158.5 -18.5q-8 0 -14 2l-110 -118l4 -5q42 29 100 29 q20 0 45 -7.5t54.5 -25t49 -55.5t19.5 -90q0 -89 -62.5 -142t-152.5 -53q-85 0 -158 62l17 24q74 -51 135 -51q104 0 104 162q0 135 -96 135q-43 0 -82 -26l-29 30l125 131q-244 16 -430 199q-235 235 -235 555z" />
<glyph unicode="&#xc8;" horiz-adv-x="1441" d="M61 0v29h228v1401h-228v28h1172v-354h-23q-28 86 -57 142t-72 100t-103.5 64t-143.5 20h-340v-633h133q94 0 147 25t87.5 87.5t64.5 188.5h22v-637h-22q-8 33 -11.5 47.5t-11.5 44.5t-14 44.5t-16 39.5t-20.5 37.5t-25 30.5t-31 27t-37.5 18.5t-46 13.5t-54 4h-165v-739 h387q85 0 155 32t113 79t74.5 107.5t45 109t19.5 92.5h23v-449h-1250zM440 1855q0 29 21 50.5t49 21.5q26 0 44 -14.5t60 -67.5l242 -295h-29l-350 250q-37 26 -37 55z" />
<glyph unicode="&#xc9;" horiz-adv-x="1441" d="M61 0v29h228v1401h-228v28h1172v-354h-23q-28 86 -57 142t-72 100t-103.5 64t-143.5 20h-340v-633h133q94 0 147 25t87.5 87.5t64.5 188.5h22v-637h-22q-8 33 -11.5 47.5t-11.5 44.5t-14 44.5t-16 39.5t-20.5 37.5t-25 30.5t-31 27t-37.5 18.5t-46 13.5t-54 4h-165v-739 h387q85 0 155 32t113 79t74.5 107.5t45 109t19.5 92.5h23v-449h-1250zM635 1550l242 295q42 53 60 67.5t44 14.5q28 0 49 -21.5t21 -50.5t-37 -55l-350 -250h-29z" />
<glyph unicode="&#xca;" horiz-adv-x="1441" d="M61 0v29h228v1401h-228v28h1172v-354h-23q-28 86 -57 142t-72 100t-103.5 64t-143.5 20h-340v-633h133q94 0 147 25t87.5 87.5t64.5 188.5h22v-637h-22q-8 33 -11.5 47.5t-11.5 44.5t-14 44.5t-16 39.5t-20.5 37.5t-25 30.5t-31 27t-37.5 18.5t-46 13.5t-54 4h-165v-739 h387q85 0 155 32t113 79t74.5 107.5t45 109t19.5 92.5h23v-449h-1250zM432 1550l232 342h114l232 -342h-29l-260 215l-260 -215h-29z" />
<glyph unicode="&#xcb;" horiz-adv-x="1441" d="M61 0v29h228v1401h-228v28h1172v-354h-23q-28 86 -57 142t-72 100t-103.5 64t-143.5 20h-340v-633h133q94 0 147 25t87.5 87.5t64.5 188.5h22v-637h-22q-8 33 -11.5 47.5t-11.5 44.5t-14 44.5t-16 39.5t-20.5 37.5t-25 30.5t-31 27t-37.5 18.5t-46 13.5t-54 4h-165v-739 h387q85 0 155 32t113 79t74.5 107.5t45 109t19.5 92.5h23v-449h-1250zM436 1735q0 38 28 66t66 28t66.5 -28t28.5 -66t-28.5 -66.5t-66.5 -28.5t-66 28.5t-28 66.5zM817 1735q0 38 28 66t66 28t66.5 -28t28.5 -66t-28.5 -66.5t-66.5 -28.5t-66 28.5t-28 66.5z" />
<glyph unicode="&#xcc;" horiz-adv-x="794" d="M68 0v29h227v1401h-227v28h659v-28h-227v-1401h227v-29h-659zM117 1855q0 29 20.5 50.5t48.5 21.5q27 0 45 -15t60 -67l241 -295h-28l-350 250q-37 26 -37 55z" />
<glyph unicode="&#xcd;" horiz-adv-x="794" d="M68 0v29h227v1401h-227v28h659v-28h-227v-1401h227v-29h-659zM311 1550l242 295q42 53 60 67.5t44 14.5q28 0 49 -21.5t21 -50.5t-37 -55l-350 -250h-29z" />
<glyph unicode="&#xce;" horiz-adv-x="794" d="M68 0v29h227v1401h-227v28h659v-28h-227v-1401h227v-29h-659zM109 1550l231 342h115l231 -342h-29l-260 215l-260 -215h-28z" />
<glyph unicode="&#xcf;" horiz-adv-x="794" d="M68 0v29h227v1401h-227v28h659v-28h-227v-1401h227v-29h-659zM113 1735q0 38 28 66t66 28t66 -28t28 -66t-28 -66.5t-66 -28.5t-66 28.5t-28 66.5zM494 1735q0 38 28 66t66 28t66 -28t28 -66t-28 -66.5t-66 -28.5t-66 28.5t-28 66.5z" />
<glyph unicode="&#xd0;" horiz-adv-x="1669" d="M61 0v29h228v739h-228v29h228v633h-228v28h381q37 0 115 4q20 0 58.5 1t56.5 1q125 0 200.5 -9.5t159.5 -37.5q122 -40 215 -109.5t150 -160t85.5 -195.5t28.5 -223q0 -130 -32 -241t-90.5 -193.5t-133 -141.5t-165.5 -98q-95 -41 -176 -52t-236 -11q-41 0 -135 4t-133 4 h-349zM494 29q106 -9 182 -9q79 0 140 8t126.5 30t120.5 68.5t96 115.5q64 106 90.5 221t26.5 258q0 134 -19 241t-63 197t-113.5 150t-173.5 93.5t-239 33.5q-21 0 -174 -6v-633h303v-29h-303v-739z" />
<glyph unicode="&#xd1;" horiz-adv-x="1478" d="M43 0v29h227v1401h-227v28h438l693 -1116h4v1088h-228v28h486v-28h-228v-1459h-41l-862 1375h-4v-1317h227v-29h-485zM420 1599q17 90 75 146.5t121 56.5q42 0 142 -47q92 -49 139 -49q31 0 56.5 13t41.5 32.5t23.5 33t11.5 23.5h29q-2 -17 -13 -46t-33.5 -68.5t-65 -67 t-95.5 -27.5q-27 0 -55 8.5t-45 16.5t-47 25q-3 2 -14 8t-14.5 7.5t-13.5 6.5t-14.5 7l-13.5 6t-15 5.5l-14 3.5t-15.5 2.5t-15.5 0.5q-95 0 -126 -97h-29z" />
<glyph unicode="&#xd2;" horiz-adv-x="1703" d="M139 731q0 127 41.5 246.5t113 211.5t162 162t193.5 107t203 37q134 0 263 -59t228.5 -159t160.5 -243.5t61 -302.5q0 -142 -56 -280.5t-150 -244.5t-228 -171.5t-279 -65.5q-121 0 -232 41t-197.5 114t-151 168t-98.5 208.5t-34 230.5zM375 731q0 -379 109.5 -556 t367.5 -177t367.5 177t109.5 556q0 86 -5.5 160t-19.5 150.5t-37 137.5t-60 116t-86 91.5t-117 58t-152 21.5t-152 -21.5t-117 -58t-86 -91.5t-60 -116t-37 -137.5t-19.5 -150.5t-5.5 -160zM571 1855q0 29 21 50.5t49 21.5q26 0 44 -14.5t60 -67.5l242 -295h-29l-350 250 q-37 26 -37 55z" />
<glyph unicode="&#xd3;" horiz-adv-x="1703" d="M139 731q0 127 41.5 246.5t113 211.5t162 162t193.5 107t203 37q134 0 263 -59t228.5 -159t160.5 -243.5t61 -302.5q0 -142 -56 -280.5t-150 -244.5t-228 -171.5t-279 -65.5q-121 0 -232 41t-197.5 114t-151 168t-98.5 208.5t-34 230.5zM375 731q0 -379 109.5 -556 t367.5 -177t367.5 177t109.5 556q0 86 -5.5 160t-19.5 150.5t-37 137.5t-60 116t-86 91.5t-117 58t-152 21.5t-152 -21.5t-117 -58t-86 -91.5t-60 -116t-37 -137.5t-19.5 -150.5t-5.5 -160zM766 1550l242 295q42 53 60 67.5t44 14.5q28 0 49 -21.5t21 -50.5t-37 -55 l-350 -250h-29z" />
<glyph unicode="&#xd4;" horiz-adv-x="1703" d="M139 731q0 127 41.5 246.5t113 211.5t162 162t193.5 107t203 37q134 0 263 -59t228.5 -159t160.5 -243.5t61 -302.5q0 -142 -56 -280.5t-150 -244.5t-228 -171.5t-279 -65.5q-121 0 -232 41t-197.5 114t-151 168t-98.5 208.5t-34 230.5zM375 731q0 -379 109.5 -556 t367.5 -177t367.5 177t109.5 556q0 86 -5.5 160t-19.5 150.5t-37 137.5t-60 116t-86 91.5t-117 58t-152 21.5t-152 -21.5t-117 -58t-86 -91.5t-60 -116t-37 -137.5t-19.5 -150.5t-5.5 -160zM563 1550l232 342h114l232 -342h-29l-260 215l-260 -215h-29z" />
<glyph unicode="&#xd5;" horiz-adv-x="1703" d="M139 731q0 127 41.5 246.5t113 211.5t162 162t193.5 107t203 37q134 0 263 -59t228.5 -159t160.5 -243.5t61 -302.5q0 -142 -56 -280.5t-150 -244.5t-228 -171.5t-279 -65.5q-121 0 -232 41t-197.5 114t-151 168t-98.5 208.5t-34 230.5zM375 731q0 -379 109.5 -556 t367.5 -177t367.5 177t109.5 556q0 86 -5.5 160t-19.5 150.5t-37 137.5t-60 116t-86 91.5t-117 58t-152 21.5t-152 -21.5t-117 -58t-86 -91.5t-60 -116t-37 -137.5t-19.5 -150.5t-5.5 -160zM532 1599q17 90 75.5 146.5t121.5 56.5q21 0 49 -8.5t40.5 -14.5t51.5 -24 q92 -49 140 -49q31 0 56.5 13t41.5 32.5t23.5 33t11.5 23.5h28q-2 -12 -8 -33t-22 -53t-38 -58t-58.5 -45.5t-79.5 -19.5q-58 0 -148 50q-2 1 -17.5 9.5t-19 10t-17 8t-19.5 8.5t-17 5.5t-20 4.5t-19 1q-31 0 -56 -11t-39 -29t-21 -31t-11 -26h-29z" />
<glyph unicode="&#xd6;" horiz-adv-x="1703" d="M139 731q0 127 41.5 246.5t113 211.5t162 162t193.5 107t203 37q134 0 263 -59t228.5 -159t160.5 -243.5t61 -302.5q0 -142 -56 -280.5t-150 -244.5t-228 -171.5t-279 -65.5q-121 0 -232 41t-197.5 114t-151 168t-98.5 208.5t-34 230.5zM375 731q0 -379 109.5 -556 t367.5 -177t367.5 177t109.5 556q0 86 -5.5 160t-19.5 150.5t-37 137.5t-60 116t-86 91.5t-117 58t-152 21.5t-152 -21.5t-117 -58t-86 -91.5t-60 -116t-37 -137.5t-19.5 -150.5t-5.5 -160zM567 1735q0 38 28.5 66t66.5 28t66 -28t28 -66t-28 -66.5t-66 -28.5t-66.5 28.5 t-28.5 66.5zM948 1735q0 38 28 66t66 28t66.5 -28t28.5 -66t-28.5 -66.5t-66.5 -28.5t-66 28.5t-28 66.5z" />
<glyph unicode="&#xd7;" horiz-adv-x="1214" d="M154 68l424 424l-424 423l26 29l426 -426l426 426l27 -29l-424 -423l424 -424l-27 -29l-426 426l-426 -426z" />
<glyph unicode="&#xd8;" horiz-adv-x="1703" d="M139 731q0 124 40.5 242t110.5 211t160 164t194.5 109t207.5 38q168 0 319 -88l109 215l27 -12l-109 -217q164 -101 265.5 -276t101.5 -386q0 -142 -56 -280.5t-150 -244.5t-228 -171.5t-279 -65.5q-172 0 -324 84l-104 -211l-27 13l107 215q-166 98 -265.5 277.5 t-99.5 383.5zM375 731q0 -451 153 -612l621 1241q-109 106 -297 106q-84 0 -152 -21.5t-117 -58t-86 -91.5t-60 -116t-37 -137.5t-19.5 -150.5t-5.5 -160zM551 98q106 -100 301 -100q258 0 367.5 177t109.5 556q0 435 -158 608z" />
<glyph unicode="&#xd9;" horiz-adv-x="1554" d="M43 1430v28h659v-28h-227v-990q0 -238 83.5 -340t254.5 -102q240 0 354 154q31 43 47 74t27.5 94t11.5 157v953h-227v28h485v-28h-227v-994q0 -91 -20 -161.5t-74 -141.5q-124 -164 -414 -164q-247 0 -376.5 123t-129.5 369v969h-227zM530 1855q0 29 21 50.5t49 21.5 q27 0 45 -15t60 -67l241 -295h-28l-351 250q-37 26 -37 55z" />
<glyph unicode="&#xda;" horiz-adv-x="1554" d="M43 1430v28h659v-28h-227v-990q0 -238 83.5 -340t254.5 -102q240 0 354 154q31 43 47 74t27.5 94t11.5 157v953h-227v28h485v-28h-227v-994q0 -91 -20 -161.5t-74 -141.5q-124 -164 -414 -164q-247 0 -376.5 123t-129.5 369v969h-227zM725 1550l242 295q42 53 60 67.5 t44 14.5q28 0 49 -21.5t21 -50.5t-37 -55l-350 -250h-29z" />
<glyph unicode="&#xdb;" horiz-adv-x="1554" d="M43 1430v28h659v-28h-227v-990q0 -238 83.5 -340t254.5 -102q240 0 354 154q31 43 47 74t27.5 94t11.5 157v953h-227v28h485v-28h-227v-994q0 -91 -20 -161.5t-74 -141.5q-124 -164 -414 -164q-247 0 -376.5 123t-129.5 369v969h-227zM522 1550l232 342h114l232 -342h-29 l-260 215l-260 -215h-29z" />
<glyph unicode="&#xdc;" horiz-adv-x="1554" d="M43 1430v28h659v-28h-227v-990q0 -238 83.5 -340t254.5 -102q240 0 354 154q31 43 47 74t27.5 94t11.5 157v953h-227v28h485v-28h-227v-994q0 -91 -20 -161.5t-74 -141.5q-124 -164 -414 -164q-247 0 -376.5 123t-129.5 369v969h-227zM526 1735q0 38 28.5 66t66.5 28 t66 -28t28 -66t-28 -66.5t-66 -28.5t-66.5 28.5t-28.5 66.5zM907 1735q0 38 28 66t66 28t66.5 -28t28.5 -66t-28.5 -66.5t-66.5 -28.5t-66 28.5t-28 66.5z" />
<glyph unicode="&#xdd;" horiz-adv-x="1441" d="M-4 1430v28h627v-28h-205l409 -721l387 721h-206v28h438v-28h-199l-399 -748v-653h227v-29h-659v29h227v587l-461 814h-186zM676 1550l242 295q42 53 60 67.5t44 14.5q28 0 49 -21.5t21 -50.5t-37 -55l-350 -250h-29z" />
<glyph unicode="&#xde;" horiz-adv-x="1327" d="M61 0v29h228v1401h-228v28h660v-28h-227v-222q9 0 72.5 3t107.5 3q236 0 389.5 -108t153.5 -281q0 -118 -80.5 -207.5t-208.5 -134.5t-281 -45q-57 0 -153 17v-426h227v-29h-660zM494 483q85 -16 165 -16q154 0 238 90.5t84 267.5q0 106 -20 175t-66 110.5t-113.5 58.5 t-169.5 17q-49 0 -118 -6v-697z" />
<glyph unicode="&#xdf;" horiz-adv-x="1251" d="M68 0v29h157v952q0 107 16.5 183.5t59.5 144.5q34 54 81 92.5t98 58t96.5 27.5t91.5 8q128 0 212.5 -68.5t84.5 -205.5q0 -119 -80 -195l-82 -80q-49 -49 -49 -94q0 -69 80 -137l178 -154q135 -117 135 -262q0 -67 -22.5 -122t-58.5 -91.5t-83.5 -61.5t-95.5 -36t-96 -11 t-95.5 9t-93 28t-74 56t-28.5 86q0 110 100 110q37 0 59.5 -19t22.5 -50q0 -17 -17.5 -55.5t-17.5 -57.5q0 -39 34.5 -58.5t121.5 -19.5q207 0 207 201q0 43 -10 77t-35 66.5t-42.5 50t-58.5 54.5l-164 145q-96 83 -96 168q0 48 24 83.5t72 72.5l86 67q78 61 111 110.5 t33 129.5q0 115 -70 172t-168 57q-78 0 -135.5 -29t-91 -81.5t-49 -118t-15.5 -144.5v-1087h-333z" />
<glyph unicode="&#xe0;" horiz-adv-x="985" d="M84 170q0 35 8 64.5t20 50.5t33.5 39.5t40.5 29.5t50 23t52.5 18.5t58 17t56.5 17.5l51 17t41.5 14.5t36.5 14.5t28 15t23.5 17.5t16.5 20.5t13.5 25t7 30t5.5 37.5t1 44.5q0 109 -31.5 160t-126.5 51q-71 0 -113.5 -25.5t-42.5 -75.5q0 -26 6.5 -68t6.5 -51 q0 -29 -21.5 -48t-58.5 -19q-62 0 -81.5 22t-19.5 66q0 96 85 161.5t235 65.5q91 0 157.5 -23t103.5 -64t54 -89.5t17 -105.5v-510q0 -56 17.5 -78.5t53.5 -22.5q47 0 95 33l16 -22q-67 -52 -154 -52q-93 0 -138 39.5t-64 120.5h-5q-8 -22 -16 -37t-29 -40.5t-48 -41.5 t-73 -28.5t-104 -12.5q-264 0 -264 199zM213 1436q0 29 21 50t49 21q26 0 44 -14.5t60 -67.5l242 -295h-29l-350 250q-37 26 -37 56zM260 193q0 -181 152 -181q52 0 91.5 19.5t61 48.5t35 69.5t17.5 75t4 72.5v205h-5q-4 -28 -67 -53l-154 -62q-135 -55 -135 -194z" />
<glyph unicode="&#xe1;" horiz-adv-x="985" d="M84 170q0 35 8 64.5t20 50.5t33.5 39.5t40.5 29.5t50 23t52.5 18.5t58 17t56.5 17.5l51 17t41.5 14.5t36.5 14.5t28 15t23.5 17.5t16.5 20.5t13.5 25t7 30t5.5 37.5t1 44.5q0 109 -31.5 160t-126.5 51q-71 0 -113.5 -25.5t-42.5 -75.5q0 -26 6.5 -68t6.5 -51 q0 -29 -21.5 -48t-58.5 -19q-62 0 -81.5 22t-19.5 66q0 96 85 161.5t235 65.5q91 0 157.5 -23t103.5 -64t54 -89.5t17 -105.5v-510q0 -56 17.5 -78.5t53.5 -22.5q47 0 95 33l16 -22q-67 -52 -154 -52q-93 0 -138 39.5t-64 120.5h-5q-8 -22 -16 -37t-29 -40.5t-48 -41.5 t-73 -28.5t-104 -12.5q-264 0 -264 199zM260 193q0 -181 152 -181q52 0 91.5 19.5t61 48.5t35 69.5t17.5 75t4 72.5v205h-5q-4 -28 -67 -53l-154 -62q-135 -55 -135 -194zM408 1130l241 295q42 52 60 67t45 15q28 0 48.5 -21t20.5 -50q0 -30 -37 -56l-350 -250h-28z" />
<glyph unicode="&#xe2;" horiz-adv-x="985" d="M84 170q0 35 8 64.5t20 50.5t33.5 39.5t40.5 29.5t50 23t52.5 18.5t58 17t56.5 17.5l51 17t41.5 14.5t36.5 14.5t28 15t23.5 17.5t16.5 20.5t13.5 25t7 30t5.5 37.5t1 44.5q0 109 -31.5 160t-126.5 51q-71 0 -113.5 -25.5t-42.5 -75.5q0 -26 6.5 -68t6.5 -51 q0 -29 -21.5 -48t-58.5 -19q-62 0 -81.5 22t-19.5 66q0 96 85 161.5t235 65.5q91 0 157.5 -23t103.5 -64t54 -89.5t17 -105.5v-510q0 -56 17.5 -78.5t53.5 -22.5q47 0 95 33l16 -22q-67 -52 -154 -52q-93 0 -138 39.5t-64 120.5h-5q-8 -22 -16 -37t-29 -40.5t-48 -41.5 t-73 -28.5t-104 -12.5q-264 0 -264 199zM205 1130l231 343h115l231 -343h-28l-260 216l-261 -216h-28zM260 193q0 -181 152 -181q52 0 91.5 19.5t61 48.5t35 69.5t17.5 75t4 72.5v205h-5q-4 -28 -67 -53l-154 -62q-135 -55 -135 -194z" />
<glyph unicode="&#xe3;" horiz-adv-x="985" d="M84 170q0 35 8 64.5t20 50.5t33.5 39.5t40.5 29.5t50 23t52.5 18.5t58 17t56.5 17.5l51 17t41.5 14.5t36.5 14.5t28 15t23.5 17.5t16.5 20.5t13.5 25t7 30t5.5 37.5t1 44.5q0 109 -31.5 160t-126.5 51q-71 0 -113.5 -25.5t-42.5 -75.5q0 -26 6.5 -68t6.5 -51 q0 -29 -21.5 -48t-58.5 -19q-62 0 -81.5 22t-19.5 66q0 96 85 161.5t235 65.5q91 0 157.5 -23t103.5 -64t54 -89.5t17 -105.5v-510q0 -56 17.5 -78.5t53.5 -22.5q47 0 95 33l16 -22q-67 -52 -154 -52q-93 0 -138 39.5t-64 120.5h-5q-8 -22 -16 -37t-29 -40.5t-48 -41.5 t-73 -28.5t-104 -12.5q-264 0 -264 199zM174 1180q17 90 75.5 146t121.5 56q21 0 49 -8.5t40.5 -14.5t51.5 -24q92 -49 139 -49q31 0 56.5 13t41.5 33t23.5 33.5t11.5 23.5h29q-2 -17 -13 -46t-33.5 -68.5t-65 -67t-95.5 -27.5q-59 0 -147 49q-2 1 -17.5 9.5t-19 10t-17 8 t-19.5 8.5t-17 5.5t-20 4.5t-19 1q-31 0 -56 -11t-39 -28.5t-21 -30.5t-11 -26h-29zM260 193q0 -181 152 -181q52 0 91.5 19.5t61 48.5t35 69.5t17.5 75t4 72.5v205h-5q-4 -28 -67 -53l-154 -62q-135 -55 -135 -194z" />
<glyph unicode="&#xe4;" horiz-adv-x="985" d="M84 170q0 35 8 64.5t20 50.5t33.5 39.5t40.5 29.5t50 23t52.5 18.5t58 17t56.5 17.5l51 17t41.5 14.5t36.5 14.5t28 15t23.5 17.5t16.5 20.5t13.5 25t7 30t5.5 37.5t1 44.5q0 109 -31.5 160t-126.5 51q-71 0 -113.5 -25.5t-42.5 -75.5q0 -26 6.5 -68t6.5 -51 q0 -29 -21.5 -48t-58.5 -19q-62 0 -81.5 22t-19.5 66q0 96 85 161.5t235 65.5q91 0 157.5 -23t103.5 -64t54 -89.5t17 -105.5v-510q0 -56 17.5 -78.5t53.5 -22.5q47 0 95 33l16 -22q-67 -52 -154 -52q-93 0 -138 39.5t-64 120.5h-5q-8 -22 -16 -37t-29 -40.5t-48 -41.5 t-73 -28.5t-104 -12.5q-264 0 -264 199zM209 1356q0 38 28 66t66 28t66 -28t28 -66t-28 -66t-66 -28t-66 28t-28 66zM260 193q0 -181 152 -181q52 0 91.5 19.5t61 48.5t35 69.5t17.5 75t4 72.5v205h-5q-4 -28 -67 -53l-154 -62q-135 -55 -135 -194zM590 1356q0 38 28 66 t66 28t66 -28t28 -66t-28 -66t-66 -28t-66 28t-28 66z" />
<glyph unicode="&#xe5;" horiz-adv-x="985" d="M84 170q0 35 8 64.5t20 50.5t33.5 39.5t40.5 29.5t50 23t52.5 18.5t58 17t56.5 17.5l51 17t41.5 14.5t36.5 14.5t28 15t23.5 17.5t16.5 20.5t13.5 25t7 30t5.5 37.5t1 44.5q0 109 -31.5 160t-126.5 51q-71 0 -113.5 -25.5t-42.5 -75.5q0 -26 6.5 -68t6.5 -51 q0 -29 -21.5 -48t-58.5 -19q-62 0 -81.5 22t-19.5 66q0 96 85 161.5t235 65.5q91 0 157.5 -23t103.5 -64t54 -89.5t17 -105.5v-510q0 -56 17.5 -78.5t53.5 -22.5q47 0 95 33l16 -22q-67 -52 -154 -52q-93 0 -138 39.5t-64 120.5h-5q-8 -22 -16 -37t-29 -40.5t-48 -41.5 t-73 -28.5t-104 -12.5q-264 0 -264 199zM260 193q0 -181 152 -181q52 0 91.5 19.5t61 48.5t35 69.5t17.5 75t4 72.5v205h-5q-4 -28 -67 -53l-154 -62q-135 -55 -135 -194zM305 1331q0 48 21 86.5t52.5 59t61.5 31t54 10.5t54 -10.5t61 -31t52 -59t21 -86.5q0 -73 -57 -128.5 t-131 -55.5t-131.5 55.5t-57.5 128.5zM395 1331q0 -89 24 -125.5t75 -36.5t74.5 36t23.5 126q0 37 -3 62t-12.5 50.5t-30 38.5t-52.5 13t-52.5 -13t-30 -38.5t-13 -51t-3.5 -61.5z" />
<glyph unicode="&#xe6;" horiz-adv-x="1478" d="M72 170q0 52 14 89t44.5 62.5t65 42t89.5 33.5l200 64q79 25 117.5 72t38.5 137q0 207 -184 207q-71 0 -113.5 -25.5t-42.5 -75.5q0 -26 6 -68t6 -51q0 -29 -21.5 -48t-58.5 -19q-62 0 -81 21.5t-19 66.5q0 96 85 161.5t235 65.5q204 0 288 -121q129 121 295 121 q34 0 74 -9t90.5 -36.5t90 -69.5t66.5 -115.5t27 -166.5h-573q0 -14 -1 -42t-1 -42q0 -65 3 -113t11.5 -100t25.5 -87t43 -65t67 -44.5t94 -14.5q42 0 85.5 12.5t85.5 37t74.5 69.5t44.5 104l31 -8q-62 -244 -342 -244q-142 0 -239.5 60t-139.5 180h-4q-3 -28 -13 -56 t-33 -62.5t-56 -60.5t-88 -43.5t-123 -17.5q-264 0 -264 199zM248 193q0 -181 151 -181q62 0 107 27.5t68.5 66t37.5 96.5t17.5 103.5t3.5 102.5v118h-4q-14 -26 -33 -42t-59 -33l-154 -64q-135 -55 -135 -194zM813 537h373q6 129 6 139q0 97 -39 149t-111 52 q-106 0 -160.5 -82.5t-68.5 -257.5z" />
<glyph unicode="&#xe7;" horiz-adv-x="985" d="M92 434q0 131 64 239.5t173.5 170t239.5 61.5q57 0 113.5 -13.5t106.5 -39.5t81 -73t31 -107q0 -44 -28 -71.5t-78 -27.5q-40 0 -69.5 17t-29.5 51q0 20 14.5 70t14.5 67q0 46 -46.5 72.5t-115.5 26.5q-45 0 -77 -6t-70.5 -32t-62 -72t-40 -132t-16.5 -207 q0 -75 6.5 -134.5t25 -116t48 -94.5t78 -60.5t112.5 -22.5q58 0 105.5 12t80 34t55.5 44t38.5 52.5t22.5 48t14 40.5l30 -6q-7 -22 -10.5 -32t-17 -40t-27 -48t-40 -45t-56 -43t-74 -29.5t-96.5 -16.5l-115 -118l4 -5q42 29 101 29q20 0 45 -7.5t54.5 -25t49 -55.5t19.5 -90 q0 -89 -62.5 -142t-152.5 -53q-85 0 -158 62l16 24q74 -51 135 -51q105 0 105 162q0 135 -96 135q-43 0 -82 -26l-29 30l123 131q-82 2 -159 28.5t-145.5 79t-110.5 144.5t-42 211z" />
<glyph unicode="&#xe8;" horiz-adv-x="1024" d="M92 434q0 120 60.5 228.5t168 175.5t232.5 67q48 0 97.5 -12t100.5 -42t90 -74t64 -113.5t25 -155.5h-631q0 -11 -1 -41.5t-1 -54.5q0 -63 4.5 -113.5t21 -109t44.5 -97.5t79 -65.5t121 -26.5q58 0 105.5 12t80 34t55.5 44t38.5 52.5t22.5 48t14 40.5l30 -6 q-5 -16 -7.5 -24.5t-12 -31t-18 -37t-24.5 -37.5t-34 -38t-44 -33t-55.5 -28.5t-69 -17.5t-83.5 -7q-207 0 -340 128t-133 335zM231 1436q0 29 21 50t49 21q27 0 45 -15t60 -67l241 -295h-29l-350 250q-37 26 -37 56zM301 537h420q4 39 4 104q0 130 -46.5 183t-133.5 53 q-53 0 -94.5 -18.5t-67.5 -49t-44 -76t-26 -92t-12 -104.5z" />
<glyph unicode="&#xe9;" horiz-adv-x="1024" d="M92 434q0 120 60.5 228.5t168 175.5t232.5 67q48 0 97.5 -12t100.5 -42t90 -74t64 -113.5t25 -155.5h-631q0 -11 -1 -41.5t-1 -54.5q0 -63 4.5 -113.5t21 -109t44.5 -97.5t79 -65.5t121 -26.5q58 0 105.5 12t80 34t55.5 44t38.5 52.5t22.5 48t14 40.5l30 -6 q-5 -16 -7.5 -24.5t-12 -31t-18 -37t-24.5 -37.5t-34 -38t-44 -33t-55.5 -28.5t-69 -17.5t-83.5 -7q-207 0 -340 128t-133 335zM301 537h420q4 39 4 104q0 130 -46.5 183t-133.5 53q-53 0 -94.5 -18.5t-67.5 -49t-44 -76t-26 -92t-12 -104.5zM426 1130l242 295 q42 53 60 67.5t44 14.5q28 0 49 -21t21 -50q0 -30 -37 -56l-350 -250h-29z" />
<glyph unicode="&#xea;" horiz-adv-x="1024" d="M92 434q0 120 60.5 228.5t168 175.5t232.5 67q48 0 97.5 -12t100.5 -42t90 -74t64 -113.5t25 -155.5h-631q0 -11 -1 -41.5t-1 -54.5q0 -63 4.5 -113.5t21 -109t44.5 -97.5t79 -65.5t121 -26.5q58 0 105.5 12t80 34t55.5 44t38.5 52.5t22.5 48t14 40.5l30 -6 q-5 -16 -7.5 -24.5t-12 -31t-18 -37t-24.5 -37.5t-34 -38t-44 -33t-55.5 -28.5t-69 -17.5t-83.5 -7q-207 0 -340 128t-133 335zM223 1130l232 343h114l232 -343h-29l-260 216l-260 -216h-29zM301 537h420q4 39 4 104q0 130 -46.5 183t-133.5 53q-53 0 -94.5 -18.5t-67.5 -49 t-44 -76t-26 -92t-12 -104.5z" />
<glyph unicode="&#xeb;" horiz-adv-x="1024" d="M92 434q0 120 60.5 228.5t168 175.5t232.5 67q48 0 97.5 -12t100.5 -42t90 -74t64 -113.5t25 -155.5h-631q0 -11 -1 -41.5t-1 -54.5q0 -63 4.5 -113.5t21 -109t44.5 -97.5t79 -65.5t121 -26.5q58 0 105.5 12t80 34t55.5 44t38.5 52.5t22.5 48t14 40.5l30 -6 q-5 -16 -7.5 -24.5t-12 -31t-18 -37t-24.5 -37.5t-34 -38t-44 -33t-55.5 -28.5t-69 -17.5t-83.5 -7q-207 0 -340 128t-133 335zM227 1356q0 38 28.5 66t66.5 28t66 -28t28 -66t-28 -66t-66 -28t-66.5 28t-28.5 66zM301 537h420q4 39 4 104q0 130 -46.5 183t-133.5 53 q-53 0 -94.5 -18.5t-67.5 -49t-44 -76t-26 -92t-12 -104.5zM608 1356q0 38 28 66t66 28t66.5 -28t28.5 -66t-28.5 -66t-66.5 -28t-66 28t-28 66z" />
<glyph unicode="&#xec;" horiz-adv-x="606" d="M23 1436q0 29 20.5 50t48.5 21q27 0 45 -15t60 -67l241 -295h-28l-351 250q-36 26 -36 56zM57 0v29h158v821h-158v29h334v-850h158v-29h-492z" />
<glyph unicode="&#xed;" horiz-adv-x="606" d="M57 0v29h158v821h-158v29h334v-850h158v-29h-492zM217 1130l242 295q42 53 60 67.5t44 14.5q28 0 49 -21t21 -50q0 -30 -37 -56l-350 -250h-29z" />
<glyph unicode="&#xee;" horiz-adv-x="606" d="M14 1130l232 343h114l232 -343h-29l-260 216l-260 -216h-29zM57 0v29h158v821h-158v29h334v-850h158v-29h-492z" />
<glyph unicode="&#xef;" horiz-adv-x="606" d="M18 1356q0 38 28.5 66t66.5 28t66 -28t28 -66t-28 -66t-66 -28t-66.5 28t-28.5 66zM57 0v29h158v821h-158v29h334v-850h158v-29h-492zM399 1356q0 38 28.5 66t66.5 28t66 -28t28 -66t-28 -66t-66 -28t-66.5 28t-28.5 66z" />
<glyph unicode="&#xf0;" horiz-adv-x="1138" d="M92 438q0 78 28.5 151.5t76.5 130t109 98.5t129.5 64.5t133.5 22.5q141 0 207 -82l4 4q-38 133 -114.5 246t-147.5 178l-246 -145l-12 22l238 142q-49 41 -72.5 60t-77 53.5t-106.5 58.5l14 22q179 -73 301 -159l244 143l12 -23l-233 -137q98 -69 180 -152.5 t147.5 -185.5t102.5 -224t37 -251q0 -99 -29.5 -183.5t-78 -142t-111 -99t-128.5 -60.5t-131 -19q-119 0 -229 62t-179 171t-69 234zM297 438q0 -112 15 -193.5t38.5 -128t61 -73.5t73 -35t84.5 -8t85 8t73.5 35t61 73.5t38.5 128t15 193.5q0 239 -65.5 339t-207.5 100 t-207 -100t-65 -339z" />
<glyph unicode="&#xf1;" horiz-adv-x="1251" d="M51 0v29h158v821h-158v29h330v-220h4q14 31 26.5 54t43.5 61.5t66 63t92 44t124 19.5q141 0 223 -68.5t82 -205.5v-598h158v-29h-491v29h157v661q0 83 -39 132.5t-116 49.5q-134 0 -230 -109.5t-96 -270.5v-463h158v-29h-492zM307 1180q17 90 75.5 146t121.5 56 q21 0 49 -8.5t40.5 -14.5t51.5 -24q92 -49 139 -49q31 0 57 13t41.5 33t23.5 33.5t12 23.5h28q-2 -17 -13 -46t-33.5 -68.5t-65 -67t-95.5 -27.5q-59 0 -147 49q-2 1 -17.5 9.5t-19 10t-17 8t-19.5 8.5t-17 5.5t-20 4.5t-19 1q-31 0 -56 -11t-39 -28.5t-21 -30.5t-11 -26 h-29z" />
<glyph unicode="&#xf2;" horiz-adv-x="1138" d="M92 438q0 78 28.5 151.5t76.5 130t109 98.5t129.5 64.5t133.5 22.5q82 0 167 -35.5t154 -96t113 -149.5t44 -186q0 -125 -69.5 -234t-179.5 -171t-229 -62t-229 62t-179 171t-69 234zM289 1436q0 29 20.5 50t48.5 21q27 0 45 -15t60 -67l242 -295h-29l-350 250 q-37 26 -37 56zM297 438q0 -112 15 -193.5t38.5 -128t61 -73.5t73 -35t84.5 -8t85 8t73.5 35t61 73.5t38.5 128t15 193.5q0 239 -65.5 339t-207.5 100t-207 -100t-65 -339z" />
<glyph unicode="&#xf3;" horiz-adv-x="1138" d="M92 438q0 78 28.5 151.5t76.5 130t109 98.5t129.5 64.5t133.5 22.5q82 0 167 -35.5t154 -96t113 -149.5t44 -186q0 -125 -69.5 -234t-179.5 -171t-229 -62t-229 62t-179 171t-69 234zM297 438q0 -112 15 -193.5t38.5 -128t61 -73.5t73 -35t84.5 -8t85 8t73.5 35t61 73.5 t38.5 128t15 193.5q0 239 -65.5 339t-207.5 100t-207 -100t-65 -339zM483 1130l242 295q42 53 60 67.5t44 14.5q28 0 49 -21t21 -50q0 -30 -37 -56l-350 -250h-29z" />
<glyph unicode="&#xf4;" horiz-adv-x="1138" d="M92 438q0 78 28.5 151.5t76.5 130t109 98.5t129.5 64.5t133.5 22.5q82 0 167 -35.5t154 -96t113 -149.5t44 -186q0 -125 -69.5 -234t-179.5 -171t-229 -62t-229 62t-179 171t-69 234zM281 1130l231 343h115l231 -343h-29l-260 216l-260 -216h-28zM297 438 q0 -112 15 -193.5t38.5 -128t61 -73.5t73 -35t84.5 -8t85 8t73.5 35t61 73.5t38.5 128t15 193.5q0 239 -65.5 339t-207.5 100t-207 -100t-65 -339z" />
<glyph unicode="&#xf5;" horiz-adv-x="1138" d="M92 438q0 78 28.5 151.5t76.5 130t109 98.5t129.5 64.5t133.5 22.5q82 0 167 -35.5t154 -96t113 -149.5t44 -186q0 -125 -69.5 -234t-179.5 -171t-229 -62t-229 62t-179 171t-69 234zM250 1180q17 90 75 146t121 56q42 0 142 -47q92 -49 139 -49q31 0 56.5 13t41.5 33 t23.5 33.5t11.5 23.5h29q-2 -17 -13 -46t-33.5 -68.5t-65 -67t-95.5 -27.5q-59 0 -147 49q-2 1 -17.5 9.5t-19 10t-17 8t-19.5 8.5t-17 5.5t-20 4.5t-19 1q-31 0 -56 -11t-39 -28.5t-21 -30.5t-11 -26h-29zM297 438q0 -112 15 -193.5t38.5 -128t61 -73.5t73 -35t84.5 -8 t85 8t73.5 35t61 73.5t38.5 128t15 193.5q0 239 -65.5 339t-207.5 100t-207 -100t-65 -339z" />
<glyph unicode="&#xf6;" horiz-adv-x="1138" d="M92 438q0 78 28.5 151.5t76.5 130t109 98.5t129.5 64.5t133.5 22.5q82 0 167 -35.5t154 -96t113 -149.5t44 -186q0 -125 -69.5 -234t-179.5 -171t-229 -62t-229 62t-179 171t-69 234zM285 1356q0 38 28 66t66 28t66 -28t28 -66t-28 -66t-66 -28t-66 28t-28 66zM297 438 q0 -112 15 -193.5t38.5 -128t61 -73.5t73 -35t84.5 -8t85 8t73.5 35t61 73.5t38.5 128t15 193.5q0 239 -65.5 339t-207.5 100t-207 -100t-65 -339zM666 1356q0 38 28 66t66 28t66 -28t28 -66t-28 -66t-66 -28t-66 28t-28 66z" />
<glyph unicode="&#xf7;" horiz-adv-x="1214" d="M115 473v37h983v-37h-983zM498 166q0 44 32 76t76 32t76.5 -32t32.5 -76t-32.5 -76.5t-76.5 -32.5t-76 32.5t-32 76.5zM498 817q0 44 32 76.5t76 32.5t76.5 -32.5t32.5 -76.5t-32.5 -76t-76.5 -32t-76 32t-32 76z" />
<glyph unicode="&#xf8;" horiz-adv-x="1138" d="M92 438q0 78 28.5 151.5t76.5 130t109 98.5t129.5 64.5t133.5 22.5q97 0 193 -49l90 180l27 -12l-91 -180q114 -62 186.5 -169.5t72.5 -236.5q0 -125 -69.5 -234t-179.5 -171t-229 -62q-105 0 -194 47l-88 -178l-27 13l90 180q-114 59 -186 168t-72 237zM297 438 q0 -259 78 -356l366 733q-59 62 -172 62q-142 0 -207 -100t-65 -339zM395 59q57 -59 174 -59q49 0 85 8t73.5 35t61 73.5t38.5 128t15 193.5q0 262 -78 355z" />
<glyph unicode="&#xf9;" horiz-adv-x="1214" d="M49 850v29h334v-629q0 -118 38.5 -184t135.5 -66q45 0 93 27.5t88.5 74.5t66.5 119.5t26 153.5v475h-155v29h332v-850h157v-29h-329v207h-5q-21 -47 -45.5 -84.5t-61 -74t-89.5 -57t-117 -20.5q-134 0 -213 58q-21 15 -33 27.5t-29.5 39.5t-26.5 70t-9 102v582h-158z M328 1436q0 29 20.5 50t48.5 21q27 0 45 -15t60 -67l241 -295h-28l-350 250q-37 26 -37 56z" />
<glyph unicode="&#xfa;" horiz-adv-x="1214" d="M49 850v29h334v-629q0 -118 38.5 -184t135.5 -66q45 0 93 27.5t88.5 74.5t66.5 119.5t26 153.5v475h-155v29h332v-850h157v-29h-329v207h-5q-21 -47 -45.5 -84.5t-61 -74t-89.5 -57t-117 -20.5q-134 0 -213 58q-21 15 -33 27.5t-29.5 39.5t-26.5 70t-9 102v582h-158z M522 1130l242 295q42 53 60 67.5t44 14.5q28 0 49 -21t21 -50q0 -30 -37 -56l-350 -250h-29z" />
<glyph unicode="&#xfb;" horiz-adv-x="1214" d="M49 850v29h334v-629q0 -118 38.5 -184t135.5 -66q45 0 93 27.5t88.5 74.5t66.5 119.5t26 153.5v475h-155v29h332v-850h157v-29h-329v207h-5q-21 -47 -45.5 -84.5t-61 -74t-89.5 -57t-117 -20.5q-134 0 -213 58q-21 15 -33 27.5t-29.5 39.5t-26.5 70t-9 102v582h-158z M319 1130l232 343h115l231 -343h-29l-260 216l-260 -216h-29z" />
<glyph unicode="&#xfc;" horiz-adv-x="1214" d="M49 850v29h334v-629q0 -118 38.5 -184t135.5 -66q45 0 93 27.5t88.5 74.5t66.5 119.5t26 153.5v475h-155v29h332v-850h157v-29h-329v207h-5q-21 -47 -45.5 -84.5t-61 -74t-89.5 -57t-117 -20.5q-134 0 -213 58q-21 15 -33 27.5t-29.5 39.5t-26.5 70t-9 102v582h-158z M324 1356q0 38 28 66t66 28t66 -28t28 -66t-28 -66t-66 -28t-66 28t-28 66zM705 1356q0 38 28 66t66 28t66 -28t28 -66t-28 -66t-66 -28t-66 28t-28 66z" />
<glyph unicode="&#xfd;" horiz-adv-x="985" d="M-45 -428q0 49 28 75.5t70 26.5q36 0 66.5 -16.5t30.5 -54.5q0 -19 -17.5 -54.5t-17.5 -56.5q0 -25 13 -34t40 -9q65 0 111.5 63t115.5 232l90 229l-354 877h-141v29h502v-29h-173l265 -643l276 643h-170v29h314v-29h-111l-338 -791q-26 -58 -143 -356 q-61 -156 -120.5 -222.5t-152.5 -66.5q-55 0 -94.5 17.5t-57.5 44.5t-25 50.5t-7 45.5zM408 1130l241 295q42 52 60 67t45 15q28 0 48.5 -21t20.5 -50q0 -30 -37 -56l-350 -250h-28z" />
<glyph unicode="&#xfe;" horiz-adv-x="1214" d="M57 -545h158v1993h-158v29h334v-764h4q8 23 20.5 46t36 50.5t53 48t74 34t97.5 13.5q114 0 214 -63.5t159 -170t59 -227.5q0 -123 -60.5 -232.5t-164 -175t-221.5 -65.5q-65 0 -117 22.5t-81.5 57.5t-45 63.5t-23.5 55.5h-4v-715h158v-28h-492v28zM391 401 q0 -401 268 -401q55 0 96 14t67.5 45t43 67.5t24.5 95t10.5 112.5t2.5 135q0 79 -6 139t-22 112.5t-42 85.5t-67.5 52t-97.5 19q-132 0 -205 -95q-42 -54 -57 -136.5t-15 -244.5z" />
<glyph unicode="&#xff;" horiz-adv-x="985" d="M-45 -428q0 49 28 75.5t70 26.5q36 0 66.5 -16.5t30.5 -54.5q0 -19 -17.5 -54.5t-17.5 -56.5q0 -25 13 -34t40 -9q65 0 111.5 63t115.5 232l90 229l-354 877h-141v29h502v-29h-173l265 -643l276 643h-170v29h314v-29h-111l-338 -791q-26 -58 -143 -356 q-61 -156 -120.5 -222.5t-152.5 -66.5q-55 0 -94.5 17.5t-57.5 44.5t-25 50.5t-7 45.5zM242 1356q0 38 28 66t66 28t66 -28t28 -66t-28 -66t-66 -28t-66 28t-28 66zM623 1356q0 38 28 66t66 28t66 -28t28 -66t-28 -66t-66 -28t-66 28t-28 66z" />
<glyph unicode="&#x152;" horiz-adv-x="2199" d="M139 735q0 106 35 209.5t91.5 184t121 141.5t129.5 98q101 57 185.5 79.5t191.5 22.5q61 0 125 -6q14 -1 39 -2.5t45.5 -2.5t38.5 -1h860v-354h-23q-28 86 -57 142t-72 100t-103.5 64t-143.5 20h-308v-633h101q94 0 147 25t87.5 87.5t64.5 188.5h22v-637h-22 q-8 33 -11.5 47.5t-11.5 44.5t-14 44.5t-16 39.5t-20.5 37.5t-25 30.5t-31 27t-37.5 18.5t-46 13.5t-54 4h-133v-739h346q71 0 134 32t105 79.5t74 106.5t48.5 110t21.5 92h23v-449h-907q-67 0 -135 -6q-16 -1 -44 -2.5t-51 -2.5t-43 -1q-96 0 -159 15t-138 50 q-85 40 -161.5 106t-137 152t-96 196.5t-35.5 227.5zM375 711q0 -227 46 -382.5t134 -217.5q64 -46 134 -70.5t177 -24.5q113 0 224 27v1374q-105 25 -205 25q-119 0 -209 -37t-147 -100.5t-92 -158.5t-48.5 -199.5t-13.5 -235.5z" />
<glyph unicode="&#x153;" horiz-adv-x="1744" d="M92 438q0 78 28.5 151.5t76.5 130t109 98.5t129.5 64.5t133.5 22.5q108 0 209.5 -55.5t143.5 -112.5q37 36 64.5 59t72.5 51.5t99 43t116 14.5q48 0 97.5 -12t100.5 -42t90 -74t64 -113.5t25 -155.5h-631q0 -11 -1 -41.5t-1 -54.5q0 -63 4.5 -113.5t21 -109t44.5 -97.5 t79 -65.5t121 -26.5q58 0 105.5 12t80 34t55.5 44t38.5 52.5t22.5 48t14 40.5l30 -6q-5 -16 -7.5 -24.5t-12 -31t-18 -37t-24.5 -37.5t-34 -38t-44 -33t-55.5 -28.5t-69 -17.5t-83.5 -7q-72 0 -131.5 13.5t-104.5 40t-73 49.5t-62 57q-151 -160 -346 -160q-119 0 -229 62 t-179 171t-69 234zM297 438q0 -112 15 -193.5t38.5 -128t61 -73.5t73 -35t84.5 -8t85 8t73.5 35t61 73.5t38.5 128t15 193.5q0 239 -65.5 339t-207.5 100t-207 -100t-65 -339zM1022 537h420q4 39 4 104q0 130 -46.5 183t-133.5 53q-53 0 -94.5 -18.5t-67.5 -49t-44 -76 t-26 -92t-12 -104.5z" />
<glyph unicode="&#x178;" horiz-adv-x="1441" d="M-4 1430v28h627v-28h-205l409 -721l387 721h-206v28h438v-28h-199l-399 -748v-653h227v-29h-659v29h227v587l-461 814h-186zM477 1735q0 38 28 66t66 28t66.5 -28t28.5 -66t-28.5 -66.5t-66.5 -28.5t-66 28.5t-28 66.5zM858 1735q0 38 28 66t66 28t66.5 -28t28.5 -66 t-28.5 -66.5t-66.5 -28.5t-66 28.5t-28 66.5z" />
<glyph unicode="&#x2c6;" d="M-4 1130l231 343h115l231 -343h-28l-260 216l-260 -216h-29z" />
<glyph unicode="&#x2dc;" d="M-35 1180q17 90 75.5 146t121.5 56q21 0 49 -8.5t40.5 -14.5t51.5 -24q92 -49 139 -49q31 0 56.5 13t41.5 33t23.5 33.5t11.5 23.5h29q-2 -17 -13 -46t-33.5 -68.5t-65 -67t-95.5 -27.5q-59 0 -147 49q-2 1 -17.5 9.5t-19 10t-17 8t-19.5 8.5t-17 5.5t-20 4.5t-19 1 q-31 0 -56 -11t-39 -28.5t-21 -30.5t-11 -26h-29z" />
<glyph unicode="&#x2000;" horiz-adv-x="963" />
<glyph unicode="&#x2001;" horiz-adv-x="1927" />
<glyph unicode="&#x2002;" horiz-adv-x="963" />
<glyph unicode="&#x2003;" horiz-adv-x="1927" />
<glyph unicode="&#x2004;" horiz-adv-x="642" />
<glyph unicode="&#x2005;" horiz-adv-x="481" />
<glyph unicode="&#x2006;" horiz-adv-x="321" />
<glyph unicode="&#x2007;" horiz-adv-x="321" />
<glyph unicode="&#x2008;" horiz-adv-x="240" />
<glyph unicode="&#x2009;" horiz-adv-x="385" />
<glyph unicode="&#x200a;" horiz-adv-x="107" />
<glyph unicode="&#x2010;" horiz-adv-x="757" d="M188 379v135h381v-135h-381z" />
<glyph unicode="&#x2011;" horiz-adv-x="757" d="M188 379v135h381v-135h-381z" />
<glyph unicode="&#x2012;" horiz-adv-x="757" d="M188 379v135h381v-135h-381z" />
<glyph unicode="&#x2013;" horiz-adv-x="1024" d="M0 432v29h1024v-29h-1024z" />
<glyph unicode="&#x2014;" horiz-adv-x="2048" d="M266 432v29h1516v-29h-1516z" />
<glyph unicode="&#x2018;" d="M137 1126q0 108 76.5 213.5t155.5 155.5l18 -25q-107 -77 -149.5 -148.5t-42.5 -123.5q0 -67 36 -106q36 51 88 51q42 0 77.5 -31t35.5 -80q0 -48 -36.5 -82.5t-88.5 -34.5q-76 0 -123 63.5t-47 147.5z" />
<glyph unicode="&#x2019;" d="M137 1378q0 48 36.5 82.5t88.5 34.5q76 0 123 -63.5t47 -147.5q0 -108 -76 -213.5t-155 -155.5l-19 25q107 77 150 148.5t43 123.5q0 67 -37 107q-36 -51 -88 -51q-42 0 -77.5 30.5t-35.5 79.5z" />
<glyph unicode="&#x201a;" d="M141 84q0 44 33.5 78.5t85.5 34.5q49 0 84.5 -22.5t52 -56.5t24 -63.5t7.5 -54.5q0 -61 -23 -120.5t-60.5 -106t-71.5 -78t-70 -57.5l-17 20q80 63 132.5 129t52.5 141q0 51 -33 101q-14 -16 -21 -23t-27.5 -18t-41.5 -11q-46 0 -76.5 29.5t-30.5 77.5z" />
<glyph unicode="&#x201c;" horiz-adv-x="909" d="M121 1133q0 61 23 120.5t60.5 106t71.5 78t70 57.5l16 -20q-184 -145 -184 -271q0 -50 33 -100q45 51 90 51q46 0 76.5 -29t30.5 -77q0 -44 -33.5 -78.5t-85.5 -34.5q-49 0 -84.5 22.5t-52 56.5t-24 63.5t-7.5 54.5zM502 1133q0 61 23 120.5t60.5 106t71.5 78t70 57.5 l16 -20q-184 -145 -184 -271q0 -50 33 -100q45 51 90 51q46 0 76 -29t30 -77q0 -44 -33 -78.5t-85 -34.5q-49 0 -84.5 22.5t-52 56.5t-24 63.5t-7.5 54.5z" />
<glyph unicode="&#x201d;" horiz-adv-x="909" d="M121 1382q0 44 33.5 78.5t85.5 34.5q49 0 84.5 -22.5t52 -56.5t24 -63.5t7.5 -54.5q0 -61 -23 -120.5t-61 -106t-72 -78t-70 -57.5l-16 20q184 145 184 271q0 51 -33 100q-45 -51 -90 -51q-46 0 -76 29t-30 77zM502 1382q0 44 33.5 78.5t85.5 34.5q49 0 84.5 -22.5 t52 -56.5t23.5 -63.5t7 -54.5q0 -61 -23 -120.5t-60.5 -106t-71.5 -78t-70 -57.5l-16 20q184 145 184 271q0 51 -33 100q-45 -51 -90 -51q-46 0 -76 29t-30 77z" />
<glyph unicode="&#x201e;" horiz-adv-x="909" d="M121 84q0 44 33.5 78.5t85.5 34.5q49 0 84.5 -22.5t52 -56.5t24 -63.5t7.5 -54.5q0 -61 -23 -120.5t-61 -106t-72 -78t-70 -57.5l-16 20q184 145 184 270q0 51 -33 101q-14 -16 -21 -23t-27.5 -18t-41.5 -11q-45 0 -75.5 29.5t-30.5 77.5zM502 84q0 44 33.5 78.5 t85.5 34.5q49 0 84.5 -22.5t52 -56.5t23.5 -63.5t7 -54.5q0 -61 -23 -120.5t-60.5 -106t-71.5 -78t-70 -57.5l-16 20q184 145 184 270q0 51 -33 101q-14 -16 -21 -23t-27.5 -18t-41.5 -11q-45 0 -75.5 29.5t-30.5 77.5z" />
<glyph unicode="&#x2022;" horiz-adv-x="1024" d="M147 729q0 151 107 258t258 107t258 -107t107 -258t-107 -257.5t-258 -106.5t-258 106.5t-107 257.5z" />
<glyph unicode="&#x2026;" horiz-adv-x="2048" d="M233 86q0 44 32.5 76.5t76.5 32.5t76.5 -32.5t32.5 -76.5t-32.5 -76.5t-76.5 -32.5t-76.5 32.5t-32.5 76.5zM915 86q0 44 32.5 76.5t76.5 32.5t76.5 -32.5t32.5 -76.5t-32.5 -76.5t-76.5 -32.5t-76.5 32.5t-32.5 76.5zM1597 86q0 44 32.5 76.5t76.5 32.5t76.5 -32.5 t32.5 -76.5t-32.5 -76.5t-76.5 -32.5t-76.5 32.5t-32.5 76.5z" />
<glyph unicode="&#x202f;" horiz-adv-x="385" />
<glyph unicode="&#x2039;" d="M127 446q0 66 25 118.5t68.5 86.5t97.5 54.5t118 29.5l6 -22q-92 -25 -140 -87t-48 -180t48 -179.5t140 -86.5l-6 -22q-64 9 -118 29.5t-98 54.5t-68.5 86t-24.5 118z" />
<glyph unicode="&#x203a;" d="M127 180q92 25 140 86.5t48 179.5t-48 180t-140 87l6 22q64 -9 118 -29.5t97.5 -54.5t68.5 -86.5t25 -118.5t-24.5 -118t-68.5 -86t-98 -54.5t-118 -29.5z" />
<glyph unicode="&#x205f;" horiz-adv-x="481" />
<glyph unicode="&#x20ac;" horiz-adv-x="1064" d="M10 618l8 29h105v10q0 18 -1 52t-1 51q0 51 8 106h-119l8 29h115q11 73 23 121q34 149 100 254q77 117 190 174q89 45 199 45q17 0 34 -1.5t29 -4t26 -6.5t21.5 -7t18.5 -8.5t14.5 -7.5t13.5 -8l9 -6q4 -2 11.5 -7.5t11.5 -7.5q20 -16 40 -16t31 8q18 15 25 35h26v-369 h-18q-17 130 -78 240q-37 66 -88 101.5t-129 35.5q-137 0 -217 -114q-37 -53 -57 -129q-37 -131 -41 -322h536l-8 -29h-528v-16q0 -16 -1 -47t-1 -47q0 -14 1 -40t1 -40v-29h463l-7 -29h-456q0 -94 11 -220t32 -193q27 -87 80 -137q74 -70 192 -70q81 0 145 37 q66 39 107 117q28 54 45.5 126t22.5 117h18v-395h-25q-23 43 -61 43q-11 0 -68 -25q-5 -2 -25 -12t-30.5 -14t-31 -11t-44.5 -9.5t-53 -2.5q-222 0 -348 160q-68 86 -113.5 220t-56.5 269h-115z" />
<glyph unicode="&#x2122;" horiz-adv-x="2009" d="M152 1247v211h684v-211h-19q-14 53 -35 90.5t-41 56t-46.5 29t-42.5 12t-38 1.5h-61v-754h117v-23h-351v23h115v754h-61q-21 0 -36 -1.5t-42 -11.5t-47 -28.5t-41.5 -56.5t-36.5 -91h-18zM899 659v23h115v754h-115v22h250l203 -592l204 592h244v-22h-114v-754h114v-23 h-350v23h117v727l-267 -760l-262 754v-721h117v-23h-256z" />
<glyph unicode="&#xe000;" horiz-adv-x="880" d="M0 0v881h881v-881h-881z" />
</font>
</defs>
</svg>
